  0
SECTION
  2
HEADER
  9
$ACADVER
  1
AC1014
  9
$ACADMAINTVER
 70
     9
  9
$DWGCODEPAGE
  3
ANSI_1250
  9
$INSBASE
 10
0.0
 20
0.0
 30
0.0
  9
$EXTMIN
 10
167.5964373672869
 20
163.1008607986231
 30
0.0
  9
$EXTMAX
 10
222.6344849842289
 20
275.552955231538
 30
0.0000000004543359
  9
$LIMMIN
 10
0.0
 20
0.0
  9
$LIMMAX
 10
12.0
 20
9.0
  9
$ORTHOMODE
 70
     0
  9
$REGENMODE
 70
     1
  9
$FILLMODE
 70
     1
  9
$QTEXTMODE
 70
     0
  9
$MIRRTEXT
 70
     0
  9
$DRAGMODE
 70
     2
  9
$LTSCALE
 40
1.0
  9
$OSMODE
 70
 15359
  9
$ATTMODE
 70
     1
  9
$TEXTSIZE
 40
0.2
  9
$TRACEWID
 40
0.05
  9
$TEXTSTYLE
  7
STANDARD
  9
$CLAYER
  8
KOTY
  9
$CELTYPE
  6
BYLAYER
  9
$CECOLOR
 62
   256
  9
$CELTSCALE
 40
1.0
  9
$DELOBJ
 70
     1
  9
$DISPSILH
 70
     0
  9
$DIMSCALE
 40
1.0
  9
$DIMASZ
 40
0.18
  9
$DIMEXO
 40
0.0625
  9
$DIMDLI
 40
0.38
  9
$DIMRND
 40
0.0
  9
$DIMDLE
 40
0.0
  9
$DIMEXE
 40
0.18
  9
$DIMTP
 40
0.0
  9
$DIMTM
 40
0.0
  9
$DIMTXT
 40
0.18
  9
$DIMCEN
 40
0.09
  9
$DIMTSZ
 40
0.0
  9
$DIMTOL
 70
     0
  9
$DIMLIM
 70
     0
  9
$DIMTIH
 70
     1
  9
$DIMTOH
 70
     1
  9
$DIMSE1
 70
     0
  9
$DIMSE2
 70
     0
  9
$DIMTAD
 70
     0
  9
$DIMZIN
 70
     0
  9
$DIMBLK
  1

  9
$DIMASO
 70
     1
  9
$DIMSHO
 70
     1
  9
$DIMPOST
  1

  9
$DIMAPOST
  1

  9
$DIMALT
 70
     0
  9
$DIMALTD
 70
     2
  9
$DIMALTF
 40
25.4
  9
$DIMLFAC
 40
1.0
  9
$DIMTOFL
 70
     0
  9
$DIMTVP
 40
0.0
  9
$DIMTIX
 70
     0
  9
$DIMSOXD
 70
     0
  9
$DIMSAH
 70
     0
  9
$DIMBLK1
  1

  9
$DIMBLK2
  1

  9
$DIMSTYLE
  2
STANDARD
  9
$DIMCLRD
 70
     0
  9
$DIMCLRE
 70
     0
  9
$DIMCLRT
 70
     0
  9
$DIMTFAC
 40
1.0
  9
$DIMGAP
 40
0.09
  9
$DIMJUST
 70
     0
  9
$DIMSD1
 70
     0
  9
$DIMSD2
 70
     0
  9
$DIMTOLJ
 70
     1
  9
$DIMTZIN
 70
     0
  9
$DIMALTZ
 70
     0
  9
$DIMALTTZ
 70
     0
  9
$DIMFIT
 70
     3
  9
$DIMUPT
 70
     0
  9
$DIMUNIT
 70
     2
  9
$DIMDEC
 70
     4
  9
$DIMTDEC
 70
     4
  9
$DIMALTU
 70
     2
  9
$DIMALTTD
 70
     2
  9
$DIMTXSTY
  7
STANDARD
  9
$DIMAUNIT
 70
     0
  9
$LUNITS
 70
     2
  9
$LUPREC
 70
     4
  9
$SKETCHINC
 40
0.1
  9
$FILLETRAD
 40
0.0
  9
$AUNITS
 70
     0
  9
$AUPREC
 70
     0
  9
$MENU
  1
.
  9
$ELEVATION
 40
0.0
  9
$PELEVATION
 40
0.0
  9
$THICKNESS
 40
0.0
  9
$LIMCHECK
 70
     0
  9
$CHAMFERA
 40
0.0
  9
$CHAMFERB
 40
0.0
  9
$CHAMFERC
 40
0.0
  9
$CHAMFERD
 40
0.0
  9
$SKPOLY
 70
     0
  9
$TDCREATE
 40
2452643.105050937
  9
$TDUPDATE
 40
2457042.544945776
  9
$TDINDWG
 40
0.0041816782
  9
$TDUSRTIMER
 40
2457042.502682789
  9
$USRTIMER
 70
     1
  9
$ANGBASE
 50
0.0
  9
$ANGDIR
 70
     0
  9
$PDMODE
 70
     0
  9
$PDSIZE
 40
0.0
  9
$PLINEWID
 40
0.0
  9
$COORDS
 70
     2
  9
$SPLFRAME
 70
     0
  9
$SPLINETYPE
 70
     6
  9
$SPLINESEGS
 70
     8
  9
$ATTDIA
 70
     0
  9
$ATTREQ
 70
     1
  9
$HANDLING
 70
     1
  9
$HANDSEED
  5
395
  9
$SURFTAB1
 70
     6
  9
$SURFTAB2
 70
     6
  9
$SURFTYPE
 70
     6
  9
$SURFU
 70
     6
  9
$SURFV
 70
     6
  9
$UCSNAME
  2

  9
$UCSORG
 10
0.0
 20
0.0
 30
0.0
  9
$UCSXDIR
 10
1.0
 20
0.0
 30
0.0
  9
$UCSYDIR
 10
0.0
 20
1.0
 30
0.0
  9
$PUCSNAME
  2

  9
$PUCSORG
 10
0.0
 20
0.0
 30
0.0
  9
$PUCSXDIR
 10
1.0
 20
0.0
 30
0.0
  9
$PUCSYDIR
 10
0.0
 20
1.0
 30
0.0
  9
$USERI1
 70
     0
  9
$USERI2
 70
     0
  9
$USERI3
 70
     0
  9
$USERI4
 70
     0
  9
$USERI5
 70
     0
  9
$USERR1
 40
0.0
  9
$USERR2
 40
0.0
  9
$USERR3
 40
0.0
  9
$USERR4
 40
0.0
  9
$USERR5
 40
0.0
  9
$WORLDVIEW
 70
     1
  9
$SHADEDGE
 70
     3
  9
$SHADEDIF
 70
    70
  9
$TILEMODE
 70
     0
  9
$MAXACTVP
 70
    64
  9
$PINSBASE
 10
0.0
 20
0.0
 30
0.0
  9
$PLIMCHECK
 70
     0
  9
$PEXTMIN
 10
0.0
 20
0.0
 30
0.0
  9
$PEXTMAX
 10
0.0
 20
0.0
 30
0.0
  9
$PLIMMIN
 10
-0.25
 20
-0.25
  9
$PLIMMAX
 10
10.75
 20
8.25
  9
$UNITMODE
 70
     0
  9
$VISRETAIN
 70
     1
  9
$PLINEGEN
 70
     0
  9
$PSLTSCALE
 70
     1
  9
$TREEDEPTH
 70
  3020
  9
$PICKSTYLE
 70
     0
  9
$CMLSTYLE
  2
STANDARD
  9
$CMLJUST
 70
     0
  9
$CMLSCALE
 40
1.0
  9
$PROXYGRAPHICS
 70
     1
  9
$MEASUREMENT
 70
     0
  0
ENDSEC
  0
SECTION
  2
CLASSES
  0
CLASS
  1
ACDBDICTIONARYWDFLT
  2
AcDbDictionaryWithDefault
  3
ObjectDBX Classes
 90
        0
280
     0
281
     0
  0
CLASS
  1
ACDBPLACEHOLDER
  2
AcDbPlaceHolder
  3
ObjectDBX Classes
 90
        0
280
     0
281
     0
  0
CLASS
  1
LAYOUT
  2
AcDbLayout
  3
ObjectDBX Classes
 90
        0
280
     0
281
     0
  0
CLASS
  1
DICTIONARYVAR
  2
AcDbDictionaryVar
  3
ObjectDBX Classes
 90
        0
280
     0
281
     0
  0
CLASS
  1
TABLESTYLE
  2
AcDbTableStyle
  3
ObjectDBX Classes
 90
     4095
280
     0
281
     0
  0
CLASS
  1
MATERIAL
  2
AcDbMaterial
  3
ObjectDBX Classes
 90
     1153
280
     0
281
     0
  0
CLASS
  1
VISUALSTYLE
  2
AcDbVisualStyle
  3
ObjectDBX Classes
 90
     4095
280
     0
281
     0
  0
CLASS
  1
SCALE
  2
AcDbScale
  3
ObjectDBX Classes
 90
     1153
280
     0
281
     0
  0
CLASS
  1
CELLSTYLEMAP
  2
AcDbCellStyleMap
  3
ObjectDBX Classes
 90
     1152
280
     0
281
     0
  0
CLASS
  1
RASTERVARIABLES
  2
AcDbRasterVariables
  3
ISM
 90
        0
280
     0
281
     0
  0
CLASS
  1
SUN
  2
AcDbSun
  3
SCENEOE
 90
     1153
280
     0
281
     0
  0
CLASS
  1
DIMASSOC
  2
AcDbDimAssoc
  3
"AcDbDimAssoc|Product Desc:     AcDim ARX App For Dimension|Company:          Autodesk, Inc.|WEB Address:      www.autodesk.com"
 90
        0
280
     0
281
     0
  0
CLASS
  1
XRECORD
  2
AcDbXrecord
  3
ObjectDBX Classes
 90
        0
280
     0
281
     0
  0
CLASS
  1
LWPOLYLINE
  2
AcDbPolyline
  3
ObjectDBX Classes
 90
        0
280
     0
281
     1
  0
CLASS
  1
HATCH
  2
AcDbHatch
  3
ObjectDBX Classes
 90
        0
280
     0
281
     1
  0
ENDSEC
  0
SECTION
  2
TABLES
  0
TABLE
  2
VPORT
  5
8
330
0
100
AcDbSymbolTable
 70
     1
  0
VPORT
  5
94
330
8
100
AcDbSymbolTableRecord
100
AcDbViewportTableRecord
  2
*ACTIVE
 70
     0
 10
0.0
 20
0.0
 11
1.0
 21
1.0
 12
219.2968426166764
 22
241.9363807081458
 13
0.0
 23
0.0
 14
0.5
 24
0.5
 15
0.5
 25
0.5
 16
0.0
 26
0.0
 36
1.0
 17
-27.66959356598008
 27
-19.53870295786186
 37
0.0
 40
130.3910924370869
 41
1.13768115942029
 42
50.0
 43
0.0
 44
0.0
 50
0.0
 51
0.0
 71
    16
 72
  1000
 73
     1
 74
     3
 75
     0
 76
     0
 77
     0
 78
     0
  0
ENDTAB
  0
TABLE
  2
LTYPE
  5
5
330
0
100
AcDbSymbolTable
 70
     1
  0
LTYPE
  5
14
330
5
100
AcDbSymbolTableRecord
100
AcDbLinetypeTableRecord
  2
BYBLOCK
 70
     0
  3

 72
    65
 73
     0
 40
0.0
  0
LTYPE
  5
15
330
5
100
AcDbSymbolTableRecord
100
AcDbLinetypeTableRecord
  2
BYLAYER
 70
     0
  3
Solid line
 72
    65
 73
     0
 40
0.0
  0
LTYPE
  5
16
330
5
100
AcDbSymbolTableRecord
100
AcDbLinetypeTableRecord
  2
CONTINUOUS
 70
     0
  3
Solid line
 72
    65
 73
     0
 40
0.0
  0
ENDTAB
  0
TABLE
  2
LAYER
  5
2
102
{ACAD_XDICTIONARY
360
317
102
}
330
0
100
AcDbSymbolTable
 70
     4
  0
LAYER
  5
10
330
2
100
AcDbSymbolTableRecord
100
AcDbLayerTableRecord
  2
0
 70
     0
 62
     7
  6
CONTINUOUS
  0
LAYER
  5
125
330
2
100
AcDbSymbolTableRecord
100
AcDbLayerTableRecord
  2
OBRYS
 70
     0
 62
     5
  6
CONTINUOUS
1001
ACAECLAYERSTANDARD
1000

1000

  0
LAYER
  5
128
330
2
100
AcDbSymbolTableRecord
100
AcDbLayerTableRecord
  2
KOTY
 70
     0
 62
     1
  6
CONTINUOUS
1001
ACAECLAYERSTANDARD
1000

1000

  0
LAYER
  5
31B
330
2
100
AcDbSymbolTableRecord
100
AcDbLayerTableRecord
  2
DEFPOINTS
 70
     0
 62
     7
  6
CONTINUOUS
  0
ENDTAB
  0
TABLE
  2
STYLE
  5
3
330
0
100
AcDbSymbolTable
 70
     1
  0
STYLE
  5
11
330
3
100
AcDbSymbolTableRecord
100
AcDbTextStyleTableRecord
  2
STANDARD
 70
     0
 40
0.0
 41
1.0
 50
0.0
 71
     0
 42
0.2
  3
arial.ttf
  4

1001
ACAD
1000
Arial
1071
        0
  0
ENDTAB
  0
TABLE
  2
VIEW
  5
6
330
0
100
AcDbSymbolTable
 70
     0
  0
ENDTAB
  0
TABLE
  2
UCS
  5
7
330
0
100
AcDbSymbolTable
 70
     0
  0
ENDTAB
  0
TABLE
  2
APPID
  5
9
330
0
100
AcDbSymbolTable
 70
     2
  0
APPID
  5
12
330
9
100
AcDbSymbolTableRecord
100
AcDbRegAppTableRecord
  2
ACAD
 70
     0
  0
APPID
  5
127
330
9
100
AcDbSymbolTableRecord
100
AcDbRegAppTableRecord
  2
ACAECLAYERSTANDARD
 70
     0
  0
ENDTAB
  0
TABLE
  2
DIMSTYLE
  5
A
330
0
100
AcDbSymbolTable
 70
     1
  0
DIMSTYLE
105
27
102
{ACAD_REACTORS
330
31C
330
32C
330
33C
330
34C
330
35C
330
36C
102
}
330
A
100
AcDbSymbolTableRecord
100
AcDbDimStyleTableRecord
  2
STANDARD
 70
     0
  3

  4

  5

  6

  7

 40
1.0
 41
0.18
 42
0.0625
 43
0.38
 44
0.18
 45
0.0
 46
0.0
 47
0.0
 48
0.0
140
0.18
141
0.09
142
0.0
143
25.4
144
1.0
145
0.0
146
1.0
147
0.09
 71
     0
 72
     0
 73
     1
 74
     1
 75
     0
 76
     0
 77
     0
 78
     0
170
     0
171
     2
172
     0
173
     0
174
     0
175
     0
176
     0
177
     0
178
     0
270
     2
271
     4
272
     4
273
     2
274
     2
340
11
275
     0
280
     0
281
     0
282
     0
283
     1
284
     0
285
     0
286
     0
287
     3
288
     0
  0
ENDTAB
  0
TABLE
  2
BLOCK_RECORD
  5
1
330
0
100
AcDbSymbolTable
 70
     8
  0
BLOCK_RECORD
  5
1F
330
1
100
AcDbSymbolTableRecord
100
AcDbBlockTableRecord
  2
*MODEL_SPACE
  0
BLOCK_RECORD
  5
387
330
1
100
AcDbSymbolTableRecord
100
AcDbBlockTableRecord
  2
*PAPER_SPACE
  0
BLOCK_RECORD
  5
31F
330
1
100
AcDbSymbolTableRecord
100
AcDbBlockTableRecord
  2
*D2
  0
BLOCK_RECORD
  5
32F
330
1
100
AcDbSymbolTableRecord
100
AcDbBlockTableRecord
  2
*D3
  0
BLOCK_RECORD
  5
33F
330
1
100
AcDbSymbolTableRecord
100
AcDbBlockTableRecord
  2
*D4
  0
BLOCK_RECORD
  5
34F
330
1
100
AcDbSymbolTableRecord
100
AcDbBlockTableRecord
  2
*D5
  0
BLOCK_RECORD
  5
35F
330
1
100
AcDbSymbolTableRecord
100
AcDbBlockTableRecord
  2
*D6
  0
BLOCK_RECORD
  5
36F
330
1
100
AcDbSymbolTableRecord
100
AcDbBlockTableRecord
  2
*D7
  0
ENDTAB
  0
ENDSEC
  0
SECTION
  2
BLOCKS
  0
BLOCK
  5
20
330
1F
100
AcDbEntity
  8
0
100
AcDbBlockBegin
  2
*MODEL_SPACE
 70
     0
 10
0.0
 20
0.0
 30
0.0
  3
*MODEL_SPACE
  1

  0
ENDBLK
  5
21
330
1F
100
AcDbEntity
  8
0
100
AcDbBlockEnd
  0
BLOCK
  5
389
330
387
100
AcDbEntity
 67
     1
  8
0
100
AcDbBlockBegin
  2
*PAPER_SPACE
 70
     0
 10
0.0
 20
0.0
 30
0.0
  3
*PAPER_SPACE
  1

  0
ENDBLK
  5
38A
330
387
100
AcDbEntity
 67
     1
  8
0
100
AcDbBlockEnd
  0
BLOCK
  5
320
330
31F
100
AcDbEntity
  8
0
100
AcDbBlockBegin
  2
*D2
 70
     1
 10
0.0
 20
0.0
 30
0.0
  3
*D2
  1
*D2
  0
LINE
  5
322
330
31F
100
AcDbEntity
  8
KOTY
 62
     0
100
AcDbLine
 10
205.9219849842289
 20
172.052955231538
 30
0.0
 11
172.0254373672868
 21
172.052955231538
 31
0.0
  0
LINE
  5
323
330
31F
100
AcDbEntity
  8
KOTY
 62
     0
100
AcDbLine
 10
205.9219849842289
 20
275.552955231538
 30
0.0
 11
172.0254373672868
 21
275.552955231538
 31
0.0
  0
LINE
  5
324
330
31F
100
AcDbEntity
  8
KOTY
 62
     0
100
AcDbLine
 10
172.2054373672868
 20
175.052955231538
 30
0.0
 11
172.2054373672868
 21
272.552955231538
 31
0.0
  0
SOLID
  5
325
330
31F
100
AcDbEntity
  8
KOTY
 62
     0
100
AcDbTrace
 10
171.7054373672868
 20
175.052955231538
 30
0.0
 11
172.7054373672868
 21
175.052955231538
 31
0.0
 12
172.2054373672868
 22
172.052955231538
 32
0.0
 13
172.2054373672868
 23
172.052955231538
 33
0.0
  0
SOLID
  5
326
330
31F
100
AcDbEntity
  8
KOTY
 62
     0
100
AcDbTrace
 10
172.7054373672868
 20
272.552955231538
 30
0.0
 11
171.7054373672868
 21
272.552955231538
 31
0.0
 12
172.2054373672868
 22
275.552955231538
 32
0.0
 13
172.2054373672868
 23
275.552955231538
 33
0.0
  0
MTEXT
  5
327
330
31F
100
AcDbEntity
  8
KOTY
 62
     0
100
AcDbMText
 10
169.4039373672868
 20
223.802955231538
 30
0.0
 40
3.0
 41
0.0
 71
     5
 72
     1
  1
\A1;104,0
 11
0.0
 21
1.0
 31
0.0
  0
POINT
  5
328
330
31F
100
AcDbEntity
  8
DEFPOINTS
 62
     0
100
AcDbPoint
 10
205.9844849842289
 20
172.052955231538
 30
0.0
  0
POINT
  5
329
330
31F
100
AcDbEntity
  8
DEFPOINTS
 62
     0
100
AcDbPoint
 10
205.9844849842289
 20
275.552955231538
 30
0.0
  0
POINT
  5
32A
330
31F
100
AcDbEntity
  8
DEFPOINTS
 62
     0
100
AcDbPoint
 10
172.2054373672868
 20
275.552955231538
 30
0.0
  0
ENDBLK
  5
321
330
31F
100
AcDbEntity
  8
0
100
AcDbBlockEnd
  0
BLOCK
  5
330
330
32F
100
AcDbEntity
  8
0
100
AcDbBlockBegin
  2
*D3
 70
     1
 10
0.0
 20
0.0
 30
0.0
  3
*D3
  1
*D3
  0
LINE
  5
332
330
32F
100
AcDbEntity
  8
KOTY
 62
     0
100
AcDbLine
 10
205.3844849842289
 20
172.590455231538
 30
0.0
 11
205.3844849842289
 21
163.4208607986231
 31
0.0
  0
LINE
  5
333
330
32F
100
AcDbEntity
  8
KOTY
 62
     0
100
AcDbLine
 10
213.3844849842289
 20
172.590455231538
 30
0.0
 11
213.3844849842289
 21
163.4208607986231
 31
0.0
  0
LINE
  5
334
330
32F
100
AcDbEntity
  8
KOTY
 62
     0
100
AcDbLine
 10
208.3844849842289
 20
163.6008607986231
 30
0.0
 11
210.3844849842289
 21
163.6008607986231
 31
0.0
  0
SOLID
  5
335
330
32F
100
AcDbEntity
  8
KOTY
 62
     0
100
AcDbTrace
 10
208.3844849842289
 20
164.1008607986231
 30
0.0
 11
208.3844849842289
 21
163.1008607986231
 31
0.0
 12
205.3844849842289
 22
163.6008607986231
 32
0.0
 13
205.3844849842289
 23
163.6008607986231
 33
0.0
  0
SOLID
  5
336
330
32F
100
AcDbEntity
  8
KOTY
 62
     0
100
AcDbTrace
 10
210.3844849842289
 20
163.1008607986231
 30
0.0
 11
210.3844849842289
 21
164.1008607986231
 31
0.0
 12
213.3844849842289
 22
163.6008607986231
 32
0.0
 13
213.3844849842289
 23
163.6008607986231
 33
0.0
  0
MTEXT
  5
337
330
32F
100
AcDbEntity
  8
KOTY
 62
     0
100
AcDbMText
 10
209.3844849842289
 20
166.1323607986231
 30
0.0
 40
3.0
 41
0.0
 71
     5
 72
     1
  1
\A1;M8
  0
POINT
  5
338
330
32F
100
AcDbEntity
  8
DEFPOINTS
 62
     0
100
AcDbPoint
 10
205.3844849842289
 20
172.652955231538
 30
0.0
  0
POINT
  5
339
330
32F
100
AcDbEntity
  8
DEFPOINTS
 62
     0
100
AcDbPoint
 10
213.3844849842289
 20
172.652955231538
 30
0.0
  0
POINT
  5
33A
330
32F
100
AcDbEntity
  8
DEFPOINTS
 62
     0
100
AcDbPoint
 10
213.3844849842289
 20
163.6008607986231
 30
0.0
  0
ENDBLK
  5
331
330
32F
100
AcDbEntity
  8
0
100
AcDbBlockEnd
  0
BLOCK
  5
340
330
33F
100
AcDbEntity
  8
0
100
AcDbBlockBegin
  2
*D4
 70
     1
 10
0.0
 20
0.0
 30
0.0
  3
*D4
  1
*D4
  0
LINE
  5
342
330
33F
100
AcDbEntity
  8
KOTY
 62
     0
100
AcDbLine
 10
196.7719849842289
 20
234.902955231538
 30
0.0
 11
187.5835388507959
 21
234.902955231538
 31
0.0
  0
LINE
  5
343
330
33F
100
AcDbEntity
  8
KOTY
 62
     0
100
AcDbLine
 10
196.7719849842289
 20
212.7029552315381
 30
0.0
 11
187.5835388507959
 21
212.7029552315381
 31
0.0
  0
LINE
  5
344
330
33F
100
AcDbEntity
  8
KOTY
 62
     0
100
AcDbLine
 10
187.7635388507959
 20
231.902955231538
 30
0.0
 11
187.7635388507959
 21
215.7029552315381
 31
0.0
  0
SOLID
  5
345
330
33F
100
AcDbEntity
  8
KOTY
 62
     0
100
AcDbTrace
 10
188.2635388507959
 20
231.902955231538
 30
0.0
 11
187.2635388507959
 21
231.902955231538
 31
0.0
 12
187.7635388507959
 22
234.902955231538
 32
0.0
 13
187.7635388507959
 23
234.902955231538
 33
0.0
  0
SOLID
  5
346
330
33F
100
AcDbEntity
  8
KOTY
 62
     0
100
AcDbTrace
 10
187.2635388507959
 20
215.7029552315381
 30
0.0
 11
188.2635388507959
 21
215.7029552315381
 31
0.0
 12
187.7635388507959
 22
212.7029552315381
 32
0.0
 13
187.7635388507959
 23
212.7029552315381
 33
0.0
  0
MTEXT
  5
347
330
33F
100
AcDbEntity
  8
KOTY
 62
     0
100
AcDbMText
 10
184.9620388507959
 20
223.802955231538
 30
0.0
 40
3.0
 41
0.0
 71
     5
 72
     1
  1
\A1;22,2
 11
0.0
 21
1.0
 31
0.0
  0
POINT
  5
348
330
33F
100
AcDbEntity
  8
DEFPOINTS
 62
     0
100
AcDbPoint
 10
196.8344849842289
 20
234.902955231538
 30
0.0
  0
POINT
  5
349
330
33F
100
AcDbEntity
  8
DEFPOINTS
 62
     0
100
AcDbPoint
 10
196.8344849842289
 20
212.7029552315381
 30
0.0
  0
POINT
  5
34A
330
33F
100
AcDbEntity
  8
DEFPOINTS
 62
     0
100
AcDbPoint
 10
187.7635388507959
 20
212.7029552315381
 30
0.0
  0
ENDBLK
  5
341
330
33F
100
AcDbEntity
  8
0
100
AcDbBlockEnd
  0
BLOCK
  5
350
330
34F
100
AcDbEntity
  8
0
100
AcDbBlockBegin
  2
*D5
 70
     1
 10
0.0
 20
0.0
 30
0.0
  3
*D5
  1
*D5
  0
LINE
  5
352
330
34F
100
AcDbEntity
  8
KOTY
 62
     0
100
AcDbLine
 10
205.9219849842289
 20
172.052955231538
 30
0.0
 11
187.5835388507959
 21
172.052955231538
 31
0.0
  0
LINE
  5
353
330
34F
100
AcDbEntity
  8
KOTY
 62
     0
100
AcDbLine
 10
202.8219849842289
 20
199.052955231538
 30
0.0
 11
187.5835388507959
 21
199.052955231538
 31
0.0
  0
LINE
  5
354
330
34F
100
AcDbEntity
  8
KOTY
 62
     0
100
AcDbLine
 10
187.7635388507959
 20
175.052955231538
 30
0.0
 11
187.7635388507959
 21
196.052955231538
 31
0.0
  0
SOLID
  5
355
330
34F
100
AcDbEntity
  8
KOTY
 62
     0
100
AcDbTrace
 10
187.2635388507959
 20
175.052955231538
 30
0.0
 11
188.2635388507959
 21
175.052955231538
 31
0.0
 12
187.7635388507959
 22
172.052955231538
 32
0.0
 13
187.7635388507959
 23
172.052955231538
 33
0.0
  0
SOLID
  5
356
330
34F
100
AcDbEntity
  8
KOTY
 62
     0
100
AcDbTrace
 10
188.2635388507959
 20
196.052955231538
 30
0.0
 11
187.2635388507959
 21
196.052955231538
 31
0.0
 12
187.7635388507959
 22
199.052955231538
 32
0.0
 13
187.7635388507959
 23
199.052955231538
 33
0.0
  0
MTEXT
  5
357
330
34F
100
AcDbEntity
  8
KOTY
 62
     0
100
AcDbMText
 10
184.9620388507959
 20
185.552955231538
 30
0.0
 40
3.0
 41
0.0
 71
     5
 72
     1
  1
\A1;27,0
 11
0.0
 21
1.0
 31
0.0
  0
POINT
  5
358
330
34F
100
AcDbEntity
  8
DEFPOINTS
 62
     0
100
AcDbPoint
 10
205.9844849842289
 20
172.052955231538
 30
0.0
  0
POINT
  5
359
330
34F
100
AcDbEntity
  8
DEFPOINTS
 62
     0
100
AcDbPoint
 10
202.8844849842289
 20
199.052955231538
 30
0.0
  0
POINT
  5
35A
330
34F
100
AcDbEntity
  8
DEFPOINTS
 62
     0
100
AcDbPoint
 10
187.7635388507959
 20
199.052955231538
 30
0.0
  0
ENDBLK
  5
351
330
34F
100
AcDbEntity
  8
0
100
AcDbBlockEnd
  0
BLOCK
  5
360
330
35F
100
AcDbEntity
  8
0
100
AcDbBlockBegin
  2
*D6
 70
     1
 10
0.0
 20
0.0
 30
0.0
  3
*D6
  1
*D6
  0
LINE
  5
362
330
35F
100
AcDbEntity
  8
KOTY
 62
     0
100
AcDbLine
 10
202.8219849842289
 20
248.552955231538
 30
0.0
 11
187.5835388507959
 21
248.552955231538
 31
0.0
  0
LINE
  5
363
330
35F
100
AcDbEntity
  8
KOTY
 62
     0
100
AcDbLine
 10
205.9219849842289
 20
275.552955231538
 30
0.0
 11
187.5835388507959
 21
275.552955231538
 31
0.0
  0
LINE
  5
364
330
35F
100
AcDbEntity
  8
KOTY
 62
     0
100
AcDbLine
 10
187.7635388507959
 20
251.552955231538
 30
0.0
 11
187.7635388507959
 21
272.552955231538
 31
0.0
  0
SOLID
  5
365
330
35F
100
AcDbEntity
  8
KOTY
 62
     0
100
AcDbTrace
 10
187.2635388507959
 20
251.552955231538
 30
0.0
 11
188.2635388507959
 21
251.552955231538
 31
0.0
 12
187.7635388507959
 22
248.552955231538
 32
0.0
 13
187.7635388507959
 23
248.552955231538
 33
0.0
  0
SOLID
  5
366
330
35F
100
AcDbEntity
  8
KOTY
 62
     0
100
AcDbTrace
 10
188.2635388507959
 20
272.552955231538
 30
0.0
 11
187.2635388507959
 21
272.552955231538
 31
0.0
 12
187.7635388507959
 22
275.552955231538
 32
0.0
 13
187.7635388507959
 23
275.552955231538
 33
0.0
  0
MTEXT
  5
367
330
35F
100
AcDbEntity
  8
KOTY
 62
     0
100
AcDbMText
 10
184.9620388507959
 20
262.052955231538
 30
0.0
 40
3.0
 41
0.0
 71
     5
 72
     1
  1
\A1;27,0
 11
0.0
 21
1.0
 31
0.0
  0
POINT
  5
368
330
35F
100
AcDbEntity
  8
DEFPOINTS
 62
     0
100
AcDbPoint
 10
202.8844849842289
 20
248.552955231538
 30
0.0
  0
POINT
  5
369
330
35F
100
AcDbEntity
  8
DEFPOINTS
 62
     0
100
AcDbPoint
 10
205.9844849842289
 20
275.552955231538
 30
0.0
  0
POINT
  5
36A
330
35F
100
AcDbEntity
  8
DEFPOINTS
 62
     0
100
AcDbPoint
 10
187.7635388507959
 20
275.552955231538
 30
0.0
  0
ENDBLK
  5
361
330
35F
100
AcDbEntity
  8
0
100
AcDbBlockEnd
  0
BLOCK
  5
370
330
36F
100
AcDbEntity
  8
0
100
AcDbBlockBegin
  2
*D7
 70
     1
 10
0.0
 20
0.0
 30
0.0
  3
*D7
  1
*D7
  0
LINE
  5
372
330
36F
100
AcDbEntity
  8
KOTY
 62
     0
100
AcDbLine
 10
196.1344849842289
 20
223.865455231538
 30
0.0
 11
196.1344849842289
 21
223.9876024611807
 31
0.0
  0
LINE
  5
373
330
36F
100
AcDbEntity
  8
KOTY
 62
     0
100
AcDbLine
 10
222.6344849842289
 20
223.865455231538
 30
0.0
 11
222.6344849842289
 21
223.9876024611807
 31
0.0
  0
LINE
  5
374
330
36F
100
AcDbEntity
  8
KOTY
 62
     0
100
AcDbLine
 10
199.1344849842289
 20
223.8076024611807
 30
0.0
 11
219.6344849842289
 21
223.8076024611807
 31
0.0
  0
SOLID
  5
375
330
36F
100
AcDbEntity
  8
KOTY
 62
     0
100
AcDbTrace
 10
199.1344849842289
 20
224.3076024611807
 30
0.0
 11
199.1344849842289
 21
223.3076024611807
 31
0.0
 12
196.1344849842289
 22
223.8076024611807
 32
0.0
 13
196.1344849842289
 23
223.8076024611807
 33
0.0
  0
SOLID
  5
376
330
36F
100
AcDbEntity
  8
KOTY
 62
     0
100
AcDbTrace
 10
219.6344849842289
 20
223.3076024611807
 30
0.0
 11
219.6344849842289
 21
224.3076024611807
 31
0.0
 12
222.6344849842289
 22
223.8076024611807
 32
0.0
 13
222.6344849842289
 23
223.8076024611807
 33
0.0
  0
MTEXT
  5
377
330
36F
100
AcDbEntity
  8
KOTY
 62
     0
100
AcDbMText
 10
209.3844849842289
 20
226.6091024611807
 30
0.0
 40
3.0
 41
0.0
 71
     5
 72
     1
  1
\A1;\U+00F8 26,5
  0
POINT
  5
378
330
36F
100
AcDbEntity
  8
DEFPOINTS
 62
     0
100
AcDbPoint
 10
196.1344849842289
 20
223.802955231538
 30
0.0
  0
POINT
  5
379
330
36F
100
AcDbEntity
  8
DEFPOINTS
 62
     0
100
AcDbPoint
 10
222.6344849842289
 20
223.802955231538
 30
0.0
  0
POINT
  5
37A
330
36F
100
AcDbEntity
  8
DEFPOINTS
 62
     0
100
AcDbPoint
 10
222.6344849842289
 20
223.8076024611807
 30
0.0
  0
ENDBLK
  5
371
330
36F
100
AcDbEntity
  8
0
100
AcDbBlockEnd
  0
ENDSEC
  0
SECTION
  2
ENTITIES
  0
LINE
  5
231
102
{ACAD_REACTORS
102
}
330
1F
100
AcDbEntity
  8
OBRYS
100
AcDbLine
 10
215.8844849842289
 20
199.052955231538
 30
0.0000000000005163
 11
202.8844849842289
 21
199.052955231538
 31
0.0000000000005163
  0
LINE
  5
232
102
{ACAD_REACTORS
102
}
330
1F
100
AcDbEntity
  8
OBRYS
100
AcDbLine
 10
196.8344849842289
 20
212.7029552315381
 30
0.0000000000005163
 11
221.934484984229
 21
212.7029552315381
 31
0.0000000000005163
  0
LINE
  5
233
330
1F
100
AcDbEntity
  8
OBRYS
100
AcDbLine
 10
213.3844849842289
 20
172.652955231538
 30
0.0000000000005163
 11
205.3844849842289
 21
172.652955231538
 31
0.0000000000005163
  0
LINE
  5
234
102
{ACAD_REACTORS
102
}
330
1F
100
AcDbEntity
  8
OBRYS
100
AcDbLine
 10
205.3844849842289
 20
172.652955231538
 30
0.0000000000005163
 11
205.9844849842289
 21
172.052955231538
 31
0.0000000000005163
  0
LINE
  5
235
330
1F
100
AcDbEntity
  8
OBRYS
100
AcDbLine
 10
205.9844849842289
 20
172.052955231538
 30
0.0000000000005163
 11
212.7844849842289
 21
172.052955231538
 31
0.0000000000005163
  0
LINE
  5
236
330
1F
100
AcDbEntity
  8
OBRYS
100
AcDbLine
 10
202.8844849842289
 20
206.052955231538
 30
0.0000000000005163
 11
202.8844849842289
 21
199.052955231538
 31
0.0000000000005163
  0
LINE
  5
237
330
1F
100
AcDbEntity
  8
OBRYS
100
AcDbLine
 10
215.8844849842289
 20
199.052955231538
 30
0.0000000000005163
 11
215.8844849842289
 21
206.052955231538
 31
0.0000000000005163
  0
LINE
  5
238
330
1F
100
AcDbEntity
  8
OBRYS
100
AcDbLine
 10
209.6723454842289
 20
181.886485231538
 30
0.0000000000005163
 11
209.6723454842289
 21
176.319425231538
 31
0.0000000000005163
  0
LINE
  5
239
102
{ACAD_REACTORS
102
}
330
1F
100
AcDbEntity
  8
OBRYS
100
AcDbLine
 10
222.6344849842289
 20
213.402955231538
 30
0.0000000000005163
 11
222.6344849842289
 21
234.2029552315381
 31
0.0000000000005163
  0
LINE
  5
23A
330
1F
100
AcDbEntity
  8
OBRYS
100
AcDbLine
 10
215.8844849842289
 20
194.052955231538
 30
0.0000000000005163
 11
215.8844849842289
 21
187.552955231538
 31
0.0000000000005163
  0
LINE
  5
23B
330
1F
100
AcDbEntity
  8
OBRYS
100
AcDbLine
 10
216.0344849842289
 20
209.1898077315381
 30
0.0000000000005163
 11
216.0344849842289
 21
211.0029552315381
 31
0.0000000000005163
  0
LINE
  5
23C
330
1F
100
AcDbEntity
  8
OBRYS
100
AcDbLine
 10
205.3844849842289
 20
198.652955231538
 30
0.0000000000005163
 11
205.3844849842289
 21
194.0525802315381
 31
0.0000000000005163
  0
LINE
  5
23D
330
1F
100
AcDbEntity
  8
OBRYS
100
AcDbLine
 10
205.3844849842289
 20
175.8529867315381
 30
0.0000000000005163
 11
205.3844849842289
 21
172.652955231538
 31
0.0000000000005163
  0
LINE
  5
23E
330
1F
100
AcDbEntity
  8
OBRYS
100
AcDbLine
 10
202.8844849842289
 20
187.552955231538
 30
0.0000000000005163
 11
202.8844849842289
 21
194.052955231538
 31
0.0000000000005163
  0
LINE
  5
23F
330
1F
100
AcDbEntity
  8
OBRYS
100
AcDbLine
 10
216.8844849842289
 20
211.0029552315381
 30
0.0000000000005163
 11
216.8844849842289
 21
208.502456231538
 31
0.0000000000005163
  0
LINE
  5
240
330
1F
100
AcDbEntity
  8
OBRYS
100
AcDbLine
 10
201.9844849842289
 20
184.152955231538
 30
0.0000000000005163
 11
201.9844849842289
 21
182.552955231538
 31
0.0000000000005163
  0
LINE
  5
241
330
1F
100
AcDbEntity
  8
OBRYS
100
AcDbLine
 10
215.8844849842289
 20
182.352955231538
 30
0.0000000000005163
 11
215.8844849842289
 21
175.852955231538
 31
0.0000000000005163
  0
LINE
  5
242
330
1F
100
AcDbEntity
  8
OBRYS
100
AcDbLine
 10
209.6723454842289
 20
193.5864852315381
 30
0.0000000000005163
 11
209.6723454842289
 21
188.019425231538
 31
0.0000000000005163
  0
LINE
  5
243
330
1F
100
AcDbEntity
  8
OBRYS
100
AcDbLine
 10
217.3844849842289
 20
184.352955231538
 30
0.0000000000005163
 11
217.3844849842289
 21
187.552955231538
 31
0.0000000000005163
  0
LINE
  5
244
330
1F
100
AcDbEntity
  8
OBRYS
100
AcDbLine
 10
209.0966239842289
 20
176.319425231538
 30
0.0000000000005163
 11
209.0966239842289
 21
181.886485231538
 31
0.0000000000005163
  0
LINE
  5
245
330
1F
100
AcDbEntity
  8
OBRYS
100
AcDbLine
 10
212.7844849842289
 20
172.052955231538
 30
0.0000000000005163
 11
213.3844849842289
 21
172.652955231538
 31
0.0000000000005163
  0
LINE
  5
246
330
1F
100
AcDbEntity
  8
OBRYS
100
AcDbLine
 10
201.884484984229
 20
208.5024457150985
 30
0.0000000000005163
 11
201.8844849842289
 21
211.0029552315381
 31
0.0000000000005163
  0
LINE
  5
247
330
1F
100
AcDbEntity
  8
OBRYS
100
AcDbLine
 10
201.3844849842289
 20
187.552955231538
 30
0.0000000000005163
 11
201.3844849842289
 21
184.352955231538
 31
0.0000000000005163
  0
LINE
  5
248
330
1F
100
AcDbEntity
  8
OBRYS
100
AcDbLine
 10
202.884484981885
 20
175.8529552968605
 30
0.0000000000005097
 11
202.8844847434102
 21
182.352955231538
 31
0.0000000000005163
  0
LINE
  5
249
330
1F
100
AcDbEntity
  8
OBRYS
100
AcDbLine
 10
215.5966239842289
 20
188.019425231538
 30
0.0000000000005163
 11
215.5966239842289
 21
193.5864852315381
 31
0.0000000000005163
  0
LINE
  5
24A
330
1F
100
AcDbEntity
  8
OBRYS
100
AcDbLine
 10
215.5966239842289
 20
176.319425231538
 30
0.0000000000005163
 11
215.5966239842289
 21
181.886485231538
 31
0.0000000000005163
  0
LINE
  5
24B
330
1F
100
AcDbEntity
  8
OBRYS
100
AcDbLine
 10
203.1723454842289
 20
193.5864852315381
 30
0.0000000000005163
 11
203.1723454842289
 21
188.019425231538
 31
0.0000000000005163
  0
LINE
  5
24C
102
{ACAD_REACTORS
102
}
330
1F
100
AcDbEntity
  8
OBRYS
100
AcDbLine
 10
196.1344849842289
 20
234.2029552315381
 30
0.0000000000005163
 11
196.1344849842289
 21
213.402955231538
 31
0.0000000000005163
  0
LINE
  5
24D
102
{ACAD_REACTORS
102
}
330
1F
100
AcDbEntity
  8
OBRYS
100
AcDbLine
 10
213.3844849842289
 20
172.652955231538
 30
0.0000000000005163
 11
213.3844849842289
 21
175.8529867315381
 31
0.0000000000005163
  0
LINE
  5
24E
330
1F
100
AcDbEntity
  8
OBRYS
100
AcDbLine
 10
213.3844849842289
 20
194.0525802315381
 30
0.0000000000005163
 11
213.3844849842289
 21
198.652955231538
 31
0.0000000000005163
  0
LINE
  5
24F
330
1F
100
AcDbEntity
  8
OBRYS
100
AcDbLine
 10
209.0966239842289
 20
188.019425231538
 30
0.0000000000005163
 11
209.0966239842289
 21
193.5864852315381
 31
0.0000000000005163
  0
LINE
  5
250
330
1F
100
AcDbEntity
  8
OBRYS
100
AcDbLine
 10
210.2344849842289
 20
211.0029552315381
 30
0.0000000000005163
 11
210.2344849842289
 21
209.1898077315381
 31
0.0000000000005163
  0
LINE
  5
251
330
1F
100
AcDbEntity
  8
OBRYS
100
AcDbLine
 10
216.7844849842289
 20
182.552955231538
 30
0.0000000000005163
 11
216.7844849842289
 21
184.152955231538
 31
0.0000000000005163
  0
LINE
  5
252
330
1F
100
AcDbEntity
  8
OBRYS
100
AcDbLine
 10
202.7344849842289
 20
211.0029552315381
 30
0.0000000000005163
 11
202.7772596276919
 21
207.8708988127331
 31
0.0000000000005099
  0
LINE
  5
253
330
1F
100
AcDbEntity
  8
OBRYS
100
AcDbLine
 10
203.1723454842289
 20
181.886485231538
 30
0.0000000000005163
 11
203.1723454842289
 21
176.319425231538
 31
0.0000000000005163
  0
LINE
  5
254
330
1F
100
AcDbEntity
  8
OBRYS
100
AcDbLine
 10
208.5344849842289
 20
209.1898077315381
 30
0.0000000000005163
 11
208.5344849842289
 21
211.0029552315381
 31
0.0000000000005163
  0
LINE
  5
255
330
1F
100
AcDbEntity
  8
OBRYS
100
AcDbLine
 10
216.8844849842289
 20
211.0029552315381
 30
0.0000000000005163
 11
201.8844849842289
 21
211.0029552315381
 31
0.0000000000005163
  0
LINE
  5
256
330
1F
100
AcDbEntity
  8
OBRYS
100
AcDbLine
 10
205.9389849842289
 20
172.0985102315381
 30
0.0000000000005163
 11
205.9389849842289
 21
175.8534137315381
 31
0.0000000000005163
  0
LINE
  5
257
330
1F
100
AcDbEntity
  8
OBRYS
100
AcDbLine
 10
205.9389849842289
 20
194.0521062315381
 30
0.0000000000005163
 11
205.9389849842289
 21
196.552955231538
 31
0.0000000000005163
  0
LINE
  5
258
330
1F
100
AcDbEntity
  8
OBRYS
100
AcDbLine
 10
205.9389849842289
 20
196.552955231538
 30
0.0000000000005163
 11
205.3844849842289
 21
198.4737997315381
 31
0.0000000000005163
  0
LINE
  5
259
330
1F
100
AcDbEntity
  8
OBRYS
100
AcDbLine
 10
212.8299849842289
 20
172.0985102315381
 30
0.0000000000005163
 11
212.8299849842289
 21
175.8534137315381
 31
0.0000000000005163
  0
LINE
  5
25A
330
1F
100
AcDbEntity
  8
OBRYS
100
AcDbLine
 10
212.8299849842289
 20
194.0521062315381
 30
0.0000000000005163
 11
212.8299849842289
 21
196.552955231538
 31
0.0000000000005163
  0
LINE
  5
25B
330
1F
100
AcDbEntity
  8
OBRYS
100
AcDbLine
 10
212.8299849842289
 20
196.552955231538
 30
0.0000000000005163
 11
213.3844849842289
 21
198.4737997315381
 31
0.0000000000005163
  0
LINE
  5
25C
330
1F
100
AcDbEntity
  8
OBRYS
100
AcDbLine
 10
213.3844849842289
 20
196.552955231538
 30
0.0000000000005163
 11
205.3844849842289
 21
196.552955231538
 31
0.0000000000005163
  0
LINE
  5
25D
330
1F
100
AcDbEntity
  8
OBRYS
100
AcDbLine
 10
215.8844849842289
 20
176.319425231538
 30
0.0000000000005163
 11
215.5966239842289
 21
176.319425231538
 31
0.0000000000005163
  0
LINE
  5
25E
330
1F
100
AcDbEntity
  8
OBRYS
100
AcDbLine
 10
201.3844849842289
 20
187.552955231538
 30
0.0000000000005163
 11
217.3844849842289
 21
187.552955231538
 31
0.0000000000005163
  0
LINE
  5
25F
330
1F
100
AcDbEntity
  8
OBRYS
100
AcDbLine
 10
209.0966239842289
 20
188.019425231538
 30
0.0000000000005163
 11
209.6723454842289
 21
188.019425231538
 31
0.0000000000005163
  0
LINE
  5
260
330
1F
100
AcDbEntity
  8
OBRYS
100
AcDbLine
 10
205.3844849842289
 20
198.652955231538
 30
0.0000000000005163
 11
213.3844849842289
 21
198.652955231538
 31
0.0000000000005163
  0
LINE
  5
261
330
1F
100
AcDbEntity
  8
OBRYS
100
AcDbLine
 10
203.1723454842289
 20
193.5864852315381
 30
0.0000000000005163
 11
202.8844849842289
 21
193.5864852315381
 31
0.0000000000005163
  0
LINE
  5
262
330
1F
100
AcDbEntity
  8
OBRYS
100
AcDbLine
 10
202.1844849842289
 20
182.352955231538
 30
0.0000000000005163
 11
216.5844849842289
 21
182.352955231538
 31
0.0000000000005163
  0
LINE
  5
263
330
1F
100
AcDbEntity
  8
OBRYS
100
AcDbLine
 10
217.3844849842289
 20
185.9529552315381
 30
0.0000000000005163
 11
201.3844849842289
 21
185.9529552315381
 31
0.0000000000005163
  0
LINE
  5
264
330
1F
100
AcDbEntity
  8
OBRYS
100
AcDbLine
 10
201.8844849842289
 20
209.1898077315381
 30
0.0000000000005163
 11
202.7592426081974
 21
209.190145847586
 31
0.0000000000005126
  0
LINE
  5
265
330
1F
100
AcDbEntity
  8
OBRYS
100
AcDbLine
 10
216.7844849842289
 20
182.552955231538
 30
0.0000000000005163
 11
201.9844849842289
 21
182.552955231538
 31
0.0000000000005163
  0
LINE
  5
266
330
1F
100
AcDbEntity
  8
OBRYS
100
AcDbLine
 10
202.8844849842289
 20
176.319425231538
 30
0.0000000000005163
 11
203.1723454842289
 21
176.319425231538
 31
0.0000000000005163
  0
LINE
  5
267
330
1F
100
AcDbEntity
  8
OBRYS
100
AcDbLine
 10
196.1344849842289
 20
213.402955231538
 30
0.0000000000005163
 11
222.6344849842289
 21
213.402955231538
 31
0.0000000000005163
  0
LINE
  5
268
330
1F
100
AcDbEntity
  8
OBRYS
100
AcDbLine
 10
215.8844849842289
 20
181.886485231538
 30
0.0000000000005163
 11
215.5966239842289
 21
181.886485231538
 31
0.0000000000005163
  0
LINE
  5
269
330
1F
100
AcDbEntity
  8
OBRYS
100
AcDbLine
 10
217.3844849842289
 20
184.352955231538
 30
0.0000000000005163
 11
201.3844849842289
 21
184.352955231538
 31
0.0000000000005163
  0
LINE
  5
26A
330
1F
100
AcDbEntity
  8
OBRYS
100
AcDbLine
 10
215.8844849842289
 20
206.052955231538
 30
0.0000000000005163
 11
202.8844849842289
 21
206.052955231538
 31
0.0000000000005163
  0
LINE
  5
26B
330
1F
100
AcDbEntity
  8
OBRYS
100
AcDbLine
 10
201.9844849842289
 20
184.152955231538
 30
0.0000000000005163
 11
216.7844849842289
 21
184.152955231538
 31
0.0000000000005163
  0
LINE
  5
26C
330
1F
100
AcDbEntity
  8
OBRYS
100
AcDbLine
 10
209.0966239842289
 20
176.319425231538
 30
0.0000000000005163
 11
209.6723454842289
 21
176.319425231538
 31
0.0000000000005163
  0
LINE
  5
26D
330
1F
100
AcDbEntity
  8
OBRYS
100
AcDbLine
 10
209.6723454842289
 20
193.5864852315381
 30
0.0000000000005163
 11
209.0966239842289
 21
193.5864852315381
 31
0.0000000000005163
  0
LINE
  5
26E
330
1F
100
AcDbEntity
  8
OBRYS
100
AcDbLine
 10
202.8844847434102
 20
175.8529552968605
 30
0.0000000000005097
 11
215.8844849842289
 21
175.852955231538
 31
0.0000000000005163
  0
LINE
  5
26F
330
1F
100
AcDbEntity
  8
OBRYS
100
AcDbLine
 10
209.6723454842289
 20
181.886485231538
 30
0.0000000000005163
 11
209.0966239842289
 21
181.886485231538
 31
0.0000000000005163
  0
LINE
  5
270
330
1F
100
AcDbEntity
  8
OBRYS
100
AcDbLine
 10
215.8844849842289
 20
193.5864852315381
 30
0.0000000000005163
 11
215.5966239842289
 21
193.5864852315381
 31
0.0000000000005163
  0
LINE
  5
271
330
1F
100
AcDbEntity
  8
OBRYS
100
AcDbLine
 10
215.8844849842289
 20
188.019425231538
 30
0.0000000000005163
 11
215.5966239842289
 21
188.019425231538
 31
0.0000000000005163
  0
LINE
  5
272
330
1F
100
AcDbEntity
  8
OBRYS
100
AcDbLine
 10
216.0344849842289
 20
209.1898077315381
 30
0.0000000000005163
 11
216.8844849842289
 21
209.1898077315381
 31
0.0000000000005163
  0
LINE
  5
273
330
1F
100
AcDbEntity
  8
OBRYS
100
AcDbLine
 10
208.5344849842289
 20
209.1898077315381
 30
0.0000000000005163
 11
210.2344849842289
 21
209.1898077315381
 31
0.0000000000005163
  0
LINE
  5
274
330
1F
100
AcDbEntity
  8
OBRYS
100
AcDbLine
 10
215.8844849842289
 20
194.052955231538
 30
0.0000000000005163
 11
202.8844849842289
 21
194.052955231538
 31
0.0000000000005163
  0
LINE
  5
275
330
1F
100
AcDbEntity
  8
OBRYS
100
AcDbLine
 10
202.8844849842289
 20
188.019425231538
 30
0.0000000000005163
 11
203.1723454842289
 21
188.019425231538
 31
0.0000000000005163
  0
LINE
  5
276
330
1F
100
AcDbEntity
  8
OBRYS
100
AcDbLine
 10
203.1723454842289
 20
181.886485231538
 30
0.0000000000005163
 11
202.8844849842289
 21
181.886485231538
 31
0.0000000000005163
  0
LINE
  5
277
330
1F
100
AcDbEntity
  8
OBRYS
100
AcDbLine
 10
216.3130559842289
 20
207.102736731538
 30
0.0000000000005163
 11
216.3130469842289
 21
207.1027412315381
 31
0.0000000000005163
  0
ARC
  5
278
330
1F
100
AcDbEntity
  8
OBRYS
100
AcDbCircle
 10
196.8344849842289
 20
213.402955231538
 30
0.0000000000005163
 40
0.7
100
AcDbArc
 50
180.0
 51
270.0
  0
ARC
  5
279
330
1F
100
AcDbEntity
  8
OBRYS
100
AcDbCircle
 10
-213.7844849842289
 20
198.652955231538
 30
-0.0000000000005163
 40
0.4
210
0.0
220
0.0
230
-1.0
100
AcDbArc
 50
0.0
 51
90.0
  0
ARC
  5
27A
330
1F
100
AcDbEntity
  8
OBRYS
100
AcDbCircle
 10
-204.9844849842289
 20
198.652955231538
 30
-0.0000000000005163
 40
0.4
210
0.0
220
0.0
230
-1.0
100
AcDbArc
 50
90.0
 51
180.0
  0
ARC
  5
27B
330
1F
100
AcDbEntity
  8
OBRYS
100
AcDbCircle
 10
-200.1844849842289
 20
211.0029552315381
 30
-0.0000000000005163
 40
1.7
210
0.0
220
0.0
230
-1.0
100
AcDbArc
 50
90.0
 51
180.0
  0
ARC
  5
27C
330
1F
100
AcDbEntity
  8
OBRYS
100
AcDbCircle
 10
-201.3844849842289
 20
206.052955231538
 30
-0.0000000000005163
 40
1.499999999999972
210
0.0
220
0.0
230
-1.0
100
AcDbArc
 50
135.6148669999992
 51
180.0
  0
ARC
  5
27D
330
1F
100
AcDbEntity
  8
OBRYS
100
AcDbCircle
 10
202.1844849842289
 20
182.552955231538
 30
0.0000000000005163
 40
0.2
100
AcDbArc
 50
180.0
 51
270.0
  0
ARC
  5
27E
330
1F
100
AcDbEntity
  8
OBRYS
100
AcDbCircle
 10
-217.3844849842289
 20
206.052955231538
 30
-0.0000000000005163
 40
1.499999999999972
210
0.0
220
0.0
230
-1.0
100
AcDbArc
 50
0.0
 51
44.38426099999905
  0
ARC
  5
27F
330
1F
100
AcDbEntity
  8
OBRYS
100
AcDbCircle
 10
221.934484984229
 20
213.402955231538
 30
0.0000000000005163
 40
0.7
100
AcDbArc
 50
270.0
 51
0.0
  0
ARC
  5
280
330
1F
100
AcDbEntity
  8
OBRYS
100
AcDbCircle
 10
216.5844849842289
 20
184.152955231538
 30
0.0000000000005163
 40
0.2
100
AcDbArc
 50
0.0
 51
90.0
  0
ARC
  5
281
330
1F
100
AcDbEntity
  8
OBRYS
100
AcDbCircle
 10
216.5844849842289
 20
182.552955231538
 30
0.0000000000005163
 40
0.2
100
AcDbArc
 50
270.0
 51
0.0
  0
ARC
  5
282
330
1F
100
AcDbEntity
  8
OBRYS
100
AcDbCircle
 10
202.1844849842289
 20
184.152955231538
 30
0.0000000000005163
 40
0.2
100
AcDbArc
 50
90.0
 51
180.0
  0
ARC
  5
283
330
1F
100
AcDbEntity
  8
OBRYS
100
AcDbCircle
 10
-218.5844849842289
 20
211.0029552315381
 30
-0.0000000000005163
 40
1.7
210
0.0
220
0.0
230
-1.0
100
AcDbArc
 50
0.0
 51
90.0
  0
ELLIPSE
  5
284
330
1F
100
AcDbEntity
  8
OBRYS
100
AcDbEllipse
 10
201.8844849842289
 20
211.0029552315381
 30
0.0000000000005163
 11
0.0
 21
1.7
 31
0.0
210
0.0
220
0.0
230
1.0
 40
0.5
 41
4.71238898038469
 42
6.283185307179586
  0
ELLIPSE
  5
285
330
1F
100
AcDbEntity
  8
OBRYS
100
AcDbEllipse
 10
214.8844849842289
 20
208.502456231538
 30
0.0000000000005163
 11
2.0
 21
0.0
 31
0.0
210
0.0
220
0.0
230
1.0
 40
0.999998
 41
5.507206575526
 42
6.283189385697062
  0
ELLIPSE
  5
286
330
1F
100
AcDbEntity
  8
OBRYS
100
AcDbEllipse
 10
207.6844849842289
 20
211.0029552315381
 30
0.0000000000005163
 11
0.0
 21
-1.7
 31
0.0
210
0.0
220
0.0
230
1.0
 40
0.5
 41
1.570796326794897
 42
3.141592653589793
  0
ELLIPSE
  5
287
330
1F
100
AcDbEntity
  8
OBRYS
100
AcDbEllipse
 10
211.0844849842289
 20
211.0029552315381
 30
0.0000000000005163
 11
0.0
 21
1.7
 31
0.0
210
0.0
220
0.0
230
1.0
 40
0.5
 41
0.0
 42
1.570796326794897
  0
ELLIPSE
  5
288
330
1F
100
AcDbEntity
  8
OBRYS
100
AcDbEllipse
 10
203.8844849842289
 20
208.502445231538
 30
0.0000000000005163
 11
2.0
 21
0.0
 31
0.0
210
0.0
220
0.0
230
1.0
 40
1.0
 41
3.141592411810501
 42
3.917537124681715
  0
ELLIPSE
  5
289
330
1F
100
AcDbEntity
  8
OBRYS
100
AcDbEllipse
 10
216.8844849842289
 20
211.0029552315381
 30
0.0000000000005163
 11
0.0
 21
-1.7
 31
0.0
210
0.0
220
0.0
230
1.0
 40
0.5
 41
3.141592653589793
 42
4.71238898038469
  0
LINE
  5
28A
330
1F
100
AcDbEntity
  8
OBRYS
100
AcDbLine
 10
203.1723454842289
 20
176.319425231538
 30
0.0000000000005163
 11
205.5325985192158
 21
175.8529552968605
 31
0.0000000000005208
  0
LINE
  5
28B
330
1F
100
AcDbEntity
  8
OBRYS
100
AcDbLine
 10
209.0966239842289
 20
176.319425231538
 30
0.0000000000005163
 11
206.7363709676046
 21
175.8529552968605
 31
0.0000000000005194
  0
LINE
  5
28C
330
1F
100
AcDbEntity
  8
OBRYS
100
AcDbLine
 10
209.6723454842289
 20
176.319425231538
 30
0.0000000000005163
 11
212.0325985192158
 21
175.8529552968605
 31
0.0000000000005132
  0
LINE
  5
28D
330
1F
100
AcDbEntity
  8
OBRYS
100
AcDbLine
 10
215.5966239842289
 20
176.319425231538
 30
0.0000000000005163
 11
213.2363709676046
 21
175.8529552968605
 31
0.0000000000005118
  0
LINE
  5
28E
330
1F
100
AcDbEntity
  8
OBRYS
100
AcDbLine
 10
205.5325975971969
 20
182.352955231538
 30
0.0000000000005163
 11
203.1723454842289
 21
181.886485231538
 31
0.0000000000005163
  0
LINE
  5
28F
330
1F
100
AcDbEntity
  8
OBRYS
100
AcDbLine
 10
206.7363718896235
 20
182.352955231538
 30
0.0000000000005163
 11
209.0966239842289
 21
181.886485231538
 31
0.0000000000005163
  0
LINE
  5
290
330
1F
100
AcDbEntity
  8
OBRYS
100
AcDbLine
 10
212.0325975971969
 20
182.352955231538
 30
0.0000000000005163
 11
209.6723454842289
 21
181.886485231538
 31
0.0000000000005163
  0
LINE
  5
291
330
1F
100
AcDbEntity
  8
OBRYS
100
AcDbLine
 10
213.2363718896235
 20
182.352955231538
 30
0.0000000000005163
 11
215.5966239842289
 21
181.886485231538
 31
0.0000000000005163
  0
LINE
  5
292
330
1F
100
AcDbEntity
  8
OBRYS
100
AcDbLine
 10
205.5325985192158
 20
187.5529552968605
 30
0.0000000000005208
 11
203.1723454842289
 21
188.019425231538
 31
0.0000000000005163
  0
LINE
  5
293
330
1F
100
AcDbEntity
  8
OBRYS
100
AcDbLine
 10
206.7363709676046
 20
187.5529552968605
 30
0.0000000000005194
 11
209.0966239842289
 21
188.019425231538
 31
0.0000000000005163
  0
LINE
  5
294
330
1F
100
AcDbEntity
  8
OBRYS
100
AcDbLine
 10
209.6723454842289
 20
188.019425231538
 30
0.0000000000005163
 11
212.0325985192158
 21
187.5529552968605
 31
0.0000000000005132
  0
LINE
  5
295
330
1F
100
AcDbEntity
  8
OBRYS
100
AcDbLine
 10
213.2363709676046
 20
187.5529552968605
 30
0.0000000000005118
 11
215.5966239842289
 21
188.019425231538
 31
0.0000000000005163
  0
LINE
  5
296
330
1F
100
AcDbEntity
  8
OBRYS
100
AcDbLine
 10
205.5325975971967
 20
194.052955231538
 30
0.0000000000005163
 11
203.1723454842289
 21
193.5864852315381
 31
0.0000000000005163
  0
LINE
  5
297
330
1F
100
AcDbEntity
  8
OBRYS
100
AcDbLine
 10
206.7363709676065
 20
194.0529552968887
 30
0.0000000000005194
 11
209.0966239842289
 21
193.5864852315381
 31
0.0000000000005163
  0
LINE
  5
298
330
1F
100
AcDbEntity
  8
OBRYS
100
AcDbLine
 10
209.6723454842289
 20
193.5864852315381
 30
0.0000000000005163
 11
212.0325975971967
 21
194.052955231538
 31
0.0000000000005163
  0
LINE
  5
299
330
1F
100
AcDbEntity
  8
OBRYS
100
AcDbLine
 10
213.2363709676065
 20
194.0529552968887
 30
0.0000000000005118
 11
215.5966239842289
 21
193.5864852315381
 31
0.0000000000005163
  0
ARC
  5
29A
330
1F
100
AcDbEntity
  8
OBRYS
100
AcDbCircle
 10
205.647198678974
 20
214.9099925146597
 30
0.0000000000004622
 40
6.407568662259437
100
AcDbArc
 50
243.2107460540358
 51
296.7825450941968
  0
ARC
  5
29B
330
1F
100
AcDbEntity
  8
OBRYS
100
AcDbCircle
 10
213.1344849305329
 20
214.9637219152305
 30
0.0000000000005831
 40
6.461275778761332
100
AcDbArc
 50
243.3315007911523
 51
296.6684978848272
  0
ARC
  5
29C
330
1F
100
AcDbEntity
  8
OBRYS
100
AcDbCircle
 10
206.5184797612975
 20
210.009150707966
 30
0.0000000000019088
 40
3.891969973333687
100
AcDbArc
 50
317.424739512389
 51
347.2515564305562
  0
ARC
  5
29D
330
1F
100
AcDbEntity
  8
OBRYS
100
AcDbCircle
 10
212.2504747932419
 20
210.0091410957509
 30
0.0000000000154724
 40
3.891952474155374
100
AcDbArc
 50
192.7509626116315
 51
222.5753050088327
  0
ARC
  5
29E
330
1F
100
AcDbEntity
  8
OBRYS
100
AcDbCircle
 10
206.2264266776172
 20
225.3007190126734
 30
0.0
 40
18.20078654897358
100
AcDbArc
 50
260.0079124766236
 51
279.9920875233764
  0
ARC
  5
29F
330
1F
100
AcDbEntity
  8
OBRYS
100
AcDbCircle
 10
212.5425428091789
 20
225.3312239268911
 30
0.0000000004543359
 40
18.23082952459953
100
AcDbArc
 50
260.0245472149003
 51
279.9754527852249
  0
LINE
  5
2A0
330
1F
100
AcDbEntity
  8
OBRYS
100
AcDbLine
 10
215.7006008749962
 20
207.3760070134719
 30
0.0000000004543359
 11
216.3119566996615
 21
207.1016291000369
 31
0.0000000000005163
  0
LINE
  5
2A1
330
1F
100
AcDbEntity
  8
OBRYS
100
AcDbLine
 10
203.068368611828
 20
207.376007013465
 30
0.0000000000005095
 11
202.455913594515
 21
207.1027367674317
 31
0.0000000000005163
  0
LINE
  5
2A2
330
1F
100
AcDbEntity
  8
OBRYS
100
AcDbLine
 10
202.7772596276919
 20
207.8708988127331
 30
0.0000000000005099
 11
203.068368611828
 21
207.376007013465
 31
0.0000000000005095
  0
LINE
  5
2A3
330
1F
100
AcDbEntity
  8
OBRYS
100
AcDbLine
 10
215.9917098591239
 20
207.8708988127214
 30
0.0000000000005228
 11
215.7006008749963
 21
207.3760070134719
 31
0.0000000004543359
  0
LINE
  5
2A4
330
1F
100
AcDbEntity
  8
OBRYS
100
AcDbLine
 10
216.0344849842289
 20
209.1898077315381
 30
0.0000000000005163
 11
215.9917098591239
 21
207.8708988127214
 31
0.0000000000005228
  0
LINE
  5
2A5
102
{ACAD_REACTORS
102
}
330
1F
100
AcDbEntity
  8
OBRYS
100
AcDbLine
 10
202.8844849842289
 20
248.552955231538
 30
0.0000000000005163
 11
215.8844849842289
 21
248.552955231538
 31
0.0000000000005163
  0
LINE
  5
2A6
330
1F
100
AcDbEntity
  8
OBRYS
100
AcDbLine
 10
221.9344849842289
 20
234.902955231538
 30
0.0000000000005163
 11
196.8344849842289
 21
234.902955231538
 31
0.0000000000005163
  0
LINE
  5
2A7
330
1F
100
AcDbEntity
  8
OBRYS
100
AcDbLine
 10
205.3844849842289
 20
274.9529552315381
 30
0.0000000000005163
 11
213.3844849842289
 21
274.9529552315381
 31
0.0000000000005163
  0
LINE
  5
2A8
330
1F
100
AcDbEntity
  8
OBRYS
100
AcDbLine
 10
213.3844849842289
 20
274.9529552315381
 30
0.0000000000005163
 11
212.7844849842289
 21
275.552955231538
 31
0.0000000000005163
  0
LINE
  5
2A9
330
1F
100
AcDbEntity
  8
OBRYS
100
AcDbLine
 10
212.7844849842289
 20
275.552955231538
 30
0.0000000000005163
 11
205.9844849842289
 21
275.552955231538
 31
0.0000000000005163
  0
LINE
  5
2AA
330
1F
100
AcDbEntity
  8
OBRYS
100
AcDbLine
 10
215.8844849842289
 20
241.552955231538
 30
0.0000000000005163
 11
215.8844849842289
 21
248.552955231538
 31
0.0000000000005163
  0
LINE
  5
2AB
330
1F
100
AcDbEntity
  8
OBRYS
100
AcDbLine
 10
202.8844849842289
 20
248.552955231538
 30
0.0000000000005163
 11
202.8844849842289
 21
241.552955231538
 31
0.0000000000005163
  0
LINE
  5
2AC
330
1F
100
AcDbEntity
  8
OBRYS
100
AcDbLine
 10
209.0966244842289
 20
265.719425231538
 30
0.0000000000005163
 11
209.0966244842289
 21
271.2864852315381
 31
0.0000000000005163
  0
LINE
  5
2AD
330
1F
100
AcDbEntity
  8
OBRYS
100
AcDbLine
 10
202.8844849842289
 20
253.552955231538
 30
0.0000000000005163
 11
202.8844849842289
 21
260.052955231538
 31
0.0000000000005163
  0
LINE
  5
2AE
330
1F
100
AcDbEntity
  8
OBRYS
100
AcDbLine
 10
202.7344849842289
 20
238.416102731538
 30
0.0000000000005163
 11
202.7344849842289
 21
236.6029552315381
 31
0.0000000000005163
  0
LINE
  5
2AF
330
1F
100
AcDbEntity
  8
OBRYS
100
AcDbLine
 10
213.3844849842289
 20
248.9529552315381
 30
0.0000000000005163
 11
213.3844849842289
 21
253.5533302315381
 31
0.0000000000005163
  0
LINE
  5
2B0
330
1F
100
AcDbEntity
  8
OBRYS
100
AcDbLine
 10
213.3844849842289
 20
271.7529237315381
 30
0.0000000000005163
 11
213.3844849842289
 21
274.9529552315381
 31
0.0000000000005163
  0
LINE
  5
2B1
330
1F
100
AcDbEntity
  8
OBRYS
100
AcDbLine
 10
215.8844849842289
 20
260.052955231538
 30
0.0000000000005163
 11
215.8844849842289
 21
253.552955231538
 31
0.0000000000005163
  0
LINE
  5
2B2
330
1F
100
AcDbEntity
  8
OBRYS
100
AcDbLine
 10
201.8844849842289
 20
236.6029552315381
 30
0.0000000000005163
 11
201.8844849842289
 21
239.1034542315381
 31
0.0000000000005163
  0
LINE
  5
2B3
330
1F
100
AcDbEntity
  8
OBRYS
100
AcDbLine
 10
216.7844849842289
 20
263.4529552315381
 30
0.0000000000005163
 11
216.7844849842289
 21
265.052955231538
 31
0.0000000000005163
  0
LINE
  5
2B4
330
1F
100
AcDbEntity
  8
OBRYS
100
AcDbLine
 10
202.8844849842289
 20
265.2529552315381
 30
0.0000000000005163
 11
202.8844849842289
 21
271.7529552315381
 31
0.0000000000005163
  0
LINE
  5
2B5
330
1F
100
AcDbEntity
  8
OBRYS
100
AcDbLine
 10
209.0966244842289
 20
254.0194252315381
 30
0.0000000000005163
 11
209.0966244842289
 21
259.5864852315381
 31
0.0000000000005163
  0
LINE
  5
2B6
330
1F
100
AcDbEntity
  8
OBRYS
100
AcDbLine
 10
201.3844849842289
 20
263.2529552315381
 30
0.0000000000005163
 11
201.3844849842289
 21
260.052955231538
 31
0.0000000000005163
  0
LINE
  5
2B7
330
1F
100
AcDbEntity
  8
OBRYS
100
AcDbLine
 10
209.6723459842289
 20
271.2864852315381
 30
0.0000000000005163
 11
209.6723459842289
 21
265.719425231538
 31
0.0000000000005163
  0
LINE
  5
2B8
102
{ACAD_REACTORS
102
}
330
1F
100
AcDbEntity
  8
OBRYS
100
AcDbLine
 10
205.9844849842289
 20
275.552955231538
 30
0.0000000000005163
 11
205.3844849842289
 21
274.9529552315381
 31
0.0000000000005163
  0
LINE
  5
2B9
330
1F
100
AcDbEntity
  8
OBRYS
100
AcDbLine
 10
216.8844849842289
 20
239.1034647479776
 30
0.0000000000005163
 11
216.8844849842289
 21
236.6029552315381
 31
0.0000000000005163
  0
LINE
  5
2BA
330
1F
100
AcDbEntity
  8
OBRYS
100
AcDbLine
 10
217.3844849842289
 20
260.052955231538
 30
0.0000000000005163
 11
217.3844849842289
 21
263.2529552315381
 31
0.0000000000005163
  0
LINE
  5
2BB
330
1F
100
AcDbEntity
  8
OBRYS
100
AcDbLine
 10
215.8844849865728
 20
271.7529551662155
 30
0.0000000000005097
 11
215.8844852250477
 21
265.2529552315381
 31
0.0000000000005163
  0
LINE
  5
2BC
330
1F
100
AcDbEntity
  8
OBRYS
100
AcDbLine
 10
203.1723459842289
 20
259.5864852315381
 30
0.0000000000005163
 11
203.1723459842289
 21
254.0194252315381
 31
0.0000000000005163
  0
LINE
  5
2BD
330
1F
100
AcDbEntity
  8
OBRYS
100
AcDbLine
 10
203.1723459842289
 20
271.2864852315381
 30
0.0000000000005163
 11
203.1723459842289
 21
265.719425231538
 31
0.0000000000005163
  0
LINE
  5
2BE
330
1F
100
AcDbEntity
  8
OBRYS
100
AcDbLine
 10
215.5966244842289
 20
254.0194252315381
 30
0.0000000000005163
 11
215.5966244842289
 21
259.5864852315381
 31
0.0000000000005163
  0
LINE
  5
2BF
330
1F
100
AcDbEntity
  8
OBRYS
100
AcDbLine
 10
205.3844849842289
 20
274.9529552315381
 30
0.0000000000005163
 11
205.3844849842289
 21
271.7529237315381
 31
0.0000000000005163
  0
LINE
  5
2C0
330
1F
100
AcDbEntity
  8
OBRYS
100
AcDbLine
 10
205.3844849842289
 20
253.5533302315381
 30
0.0000000000005163
 11
205.3844849842289
 21
248.9529552315381
 31
0.0000000000005163
  0
LINE
  5
2C1
330
1F
100
AcDbEntity
  8
OBRYS
100
AcDbLine
 10
209.6723459842289
 20
259.5864852315381
 30
0.0000000000005163
 11
209.6723459842289
 21
254.0194252315381
 31
0.0000000000005163
  0
LINE
  5
2C2
330
1F
100
AcDbEntity
  8
OBRYS
100
AcDbLine
 10
208.5344849842289
 20
236.6029552315381
 30
0.0000000000005163
 11
208.5344849842289
 21
238.416102731538
 31
0.0000000000005163
  0
LINE
  5
2C3
330
1F
100
AcDbEntity
  8
OBRYS
100
AcDbLine
 10
201.9844849842289
 20
265.052955231538
 30
0.0000000000005163
 11
201.9844849842289
 21
263.4529552315381
 31
0.0000000000005163
  0
LINE
  5
2C4
330
1F
100
AcDbEntity
  8
OBRYS
100
AcDbLine
 10
216.0344849842289
 20
236.6029552315381
 30
0.0000000000005163
 11
215.9917103407659
 21
239.735011650343
 31
0.0000000000005099
  0
LINE
  5
2C5
330
1F
100
AcDbEntity
  8
OBRYS
100
AcDbLine
 10
215.5966244842289
 20
265.719425231538
 30
0.0000000000005163
 11
215.5966244842289
 21
271.2864852315381
 31
0.0000000000005163
  0
LINE
  5
2C6
330
1F
100
AcDbEntity
  8
OBRYS
100
AcDbLine
 10
210.2344849842289
 20
238.416102731538
 30
0.0000000000005163
 11
210.2344849842289
 21
236.6029552315381
 31
0.0000000000005163
  0
LINE
  5
2C7
330
1F
100
AcDbEntity
  8
OBRYS
100
AcDbLine
 10
201.8844849842289
 20
236.6029552315381
 30
0.0000000000005163
 11
216.8844849842289
 21
236.602955231538
 31
0.0000000000005163
  0
LINE
  5
2C8
330
1F
100
AcDbEntity
  8
OBRYS
100
AcDbLine
 10
212.8299849842289
 20
275.507400231538
 30
0.0000000000005163
 11
212.8299849842289
 21
271.752496731538
 31
0.0000000000005163
  0
LINE
  5
2C9
330
1F
100
AcDbEntity
  8
OBRYS
100
AcDbLine
 10
212.8299849842289
 20
253.5538042315381
 30
0.0000000000005163
 11
212.8299849842289
 21
251.052955231538
 31
0.0000000000005163
  0
LINE
  5
2CA
330
1F
100
AcDbEntity
  8
OBRYS
100
AcDbLine
 10
212.8299849842289
 20
251.052955231538
 30
0.0000000000005163
 11
213.3844849842289
 21
249.1321107315381
 31
0.0000000000005163
  0
LINE
  5
2CB
330
1F
100
AcDbEntity
  8
OBRYS
100
AcDbLine
 10
205.9389849842289
 20
275.507400231538
 30
0.0000000000005163
 11
205.9389849842289
 21
271.752496731538
 31
0.0000000000005163
  0
LINE
  5
2CC
330
1F
100
AcDbEntity
  8
OBRYS
100
AcDbLine
 10
205.9389849842289
 20
253.5538042315381
 30
0.0000000000005163
 11
205.9389849842289
 21
251.052955231538
 31
0.0000000000005163
  0
LINE
  5
2CD
330
1F
100
AcDbEntity
  8
OBRYS
100
AcDbLine
 10
205.9389849842289
 20
251.052955231538
 30
0.0000000000005163
 11
205.3844849842289
 21
249.1321107315381
 31
0.0000000000005163
  0
LINE
  5
2CE
330
1F
100
AcDbEntity
  8
OBRYS
100
AcDbLine
 10
205.3844849842289
 20
251.052955231538
 30
0.0000000000005163
 11
213.3844849842289
 21
251.052955231538
 31
0.0000000000005163
  0
LINE
  5
2CF
330
1F
100
AcDbEntity
  8
OBRYS
100
AcDbLine
 10
202.8844849842289
 20
271.2864852315381
 30
0.0000000000005163
 11
203.1723459842289
 21
271.2864852315381
 31
0.0000000000005163
  0
LINE
  5
2D0
330
1F
100
AcDbEntity
  8
OBRYS
100
AcDbLine
 10
217.3844849842289
 20
260.052955231538
 30
0.0000000000005163
 11
201.3844849842289
 21
260.052955231538
 31
0.0000000000005163
  0
LINE
  5
2D1
330
1F
100
AcDbEntity
  8
OBRYS
100
AcDbLine
 10
209.6723459842289
 20
259.5864852315381
 30
0.0000000000005163
 11
209.0966244842289
 21
259.5864852315381
 31
0.0000000000005163
  0
LINE
  5
2D2
330
1F
100
AcDbEntity
  8
OBRYS
100
AcDbLine
 10
213.3844849842289
 20
248.9529552315381
 30
0.0000000000005163
 11
205.3844849842289
 21
248.9529552315381
 31
0.0000000000005163
  0
LINE
  5
2D3
330
1F
100
AcDbEntity
  8
OBRYS
100
AcDbLine
 10
215.5966244842289
 20
254.0194252315381
 30
0.0000000000005163
 11
215.8844849842289
 21
254.0194252315381
 31
0.0000000000005163
  0
LINE
  5
2D4
330
1F
100
AcDbEntity
  8
OBRYS
100
AcDbLine
 10
216.5844849842289
 20
265.2529552315381
 30
0.0000000000005163
 11
202.1844849842289
 21
265.2529552315381
 31
0.0000000000005163
  0
LINE
  5
2D5
330
1F
100
AcDbEntity
  8
OBRYS
100
AcDbLine
 10
201.3844849842289
 20
261.652955231538
 30
0.0000000000005163
 11
217.3844849842289
 21
261.652955231538
 31
0.0000000000005163
  0
LINE
  5
2D6
330
1F
100
AcDbEntity
  8
OBRYS
100
AcDbLine
 10
216.8844849842289
 20
238.416102731538
 30
0.0000000000005163
 11
216.0097273602604
 21
238.4157646154901
 31
0.0000000000005126
  0
LINE
  5
2D7
330
1F
100
AcDbEntity
  8
OBRYS
100
AcDbLine
 10
201.9844849842289
 20
265.052955231538
 30
0.0000000000005163
 11
216.7844849842289
 21
265.052955231538
 31
0.0000000000005163
  0
LINE
  5
2D8
330
1F
100
AcDbEntity
  8
OBRYS
100
AcDbLine
 10
215.8844849842289
 20
271.2864852315381
 30
0.0000000000005163
 11
215.5966244842289
 21
271.2864852315381
 31
0.0000000000005163
  0
LINE
  5
2D9
330
1F
100
AcDbEntity
  8
OBRYS
100
AcDbLine
 10
222.6344849842289
 20
234.2029552315381
 30
0.0000000000005163
 11
196.1344849842289
 21
234.2029552315381
 31
0.0000000000005163
  0
LINE
  5
2DA
330
1F
100
AcDbEntity
  8
OBRYS
100
AcDbLine
 10
202.8844849842289
 20
265.719425231538
 30
0.0000000000005163
 11
203.1723459842289
 21
265.719425231538
 31
0.0000000000005163
  0
LINE
  5
2DB
330
1F
100
AcDbEntity
  8
OBRYS
100
AcDbLine
 10
201.3844849842289
 20
263.2529552315381
 30
0.0000000000005163
 11
217.3844849842289
 21
263.2529552315381
 31
0.0000000000005163
  0
LINE
  5
2DC
330
1F
100
AcDbEntity
  8
OBRYS
100
AcDbLine
 10
202.8844849842289
 20
241.552955231538
 30
0.0000000000005163
 11
215.8844849842289
 21
241.552955231538
 31
0.0000000000005163
  0
LINE
  5
2DD
330
1F
100
AcDbEntity
  8
OBRYS
100
AcDbLine
 10
216.7844849842289
 20
263.4529552315381
 30
0.0000000000005163
 11
201.9844849842289
 21
263.4529552315381
 31
0.0000000000005163
  0
LINE
  5
2DE
330
1F
100
AcDbEntity
  8
OBRYS
100
AcDbLine
 10
209.6723459842289
 20
271.2864852315381
 30
0.0000000000005163
 11
209.0966244842289
 21
271.2864852315381
 31
0.0000000000005163
  0
LINE
  5
2DF
330
1F
100
AcDbEntity
  8
OBRYS
100
AcDbLine
 10
209.0966244842289
 20
254.0194252315381
 30
0.0000000000005163
 11
209.6723459842289
 21
254.0194252315381
 31
0.0000000000005163
  0
LINE
  5
2E0
330
1F
100
AcDbEntity
  8
OBRYS
100
AcDbLine
 10
215.8844852250477
 20
271.7529551662155
 30
0.0000000000005097
 11
202.8844849842289
 21
271.7529552315381
 31
0.0000000000005163
  0
LINE
  5
2E1
330
1F
100
AcDbEntity
  8
OBRYS
100
AcDbLine
 10
209.0966244842289
 20
265.719425231538
 30
0.0000000000005163
 11
209.6723459842289
 21
265.719425231538
 31
0.0000000000005163
  0
LINE
  5
2E2
330
1F
100
AcDbEntity
  8
OBRYS
100
AcDbLine
 10
202.8844849842289
 20
254.0194252315381
 30
0.0000000000005163
 11
203.1723459842289
 21
254.0194252315381
 31
0.0000000000005163
  0
LINE
  5
2E3
330
1F
100
AcDbEntity
  8
OBRYS
100
AcDbLine
 10
202.8844849842289
 20
259.5864852315381
 30
0.0000000000005163
 11
203.1723459842289
 21
259.5864852315381
 31
0.0000000000005163
  0
LINE
  5
2E4
330
1F
100
AcDbEntity
  8
OBRYS
100
AcDbLine
 10
202.7344849842289
 20
238.416102731538
 30
0.0000000000005163
 11
201.8844849842289
 21
238.416102731538
 31
0.0000000000005163
  0
LINE
  5
2E5
330
1F
100
AcDbEntity
  8
OBRYS
100
AcDbLine
 10
210.2344849842289
 20
238.416102731538
 30
0.0000000000005163
 11
208.5344849842289
 21
238.416102731538
 31
0.0000000000005163
  0
LINE
  5
2E6
330
1F
100
AcDbEntity
  8
OBRYS
100
AcDbLine
 10
202.8844849842289
 20
253.552955231538
 30
0.0000000000005163
 11
215.8844849842289
 21
253.552955231538
 31
0.0000000000005163
  0
LINE
  5
2E7
330
1F
100
AcDbEntity
  8
OBRYS
100
AcDbLine
 10
215.8844849842289
 20
259.5864852315381
 30
0.0000000000005163
 11
215.5966244842289
 21
259.5864852315381
 31
0.0000000000005163
  0
LINE
  5
2E8
330
1F
100
AcDbEntity
  8
OBRYS
100
AcDbLine
 10
215.5966244842289
 20
265.719425231538
 30
0.0000000000005163
 11
215.8844849842289
 21
265.719425231538
 31
0.0000000000005163
  0
LINE
  5
2E9
330
1F
100
AcDbEntity
  8
OBRYS
100
AcDbLine
 10
202.4559139842289
 20
240.5031737315381
 30
0.0000000000005163
 11
202.4559229842289
 21
240.5031692315381
 31
0.0000000000005163
  0
ARC
  5
2EA
330
1F
100
AcDbEntity
  8
OBRYS
100
AcDbCircle
 10
221.9344849842289
 20
234.2029552315381
 30
0.0000000000005163
 40
0.7
100
AcDbArc
 50
0.0
 51
90.0
  0
ARC
  5
2EB
330
1F
100
AcDbEntity
  8
OBRYS
100
AcDbCircle
 10
-204.9844849842289
 20
248.9529552315381
 30
-0.0000000000005163
 40
0.4
210
0.0
220
0.0
230
-1.0
100
AcDbArc
 50
180.0
 51
270.0
  0
ARC
  5
2EC
330
1F
100
AcDbEntity
  8
OBRYS
100
AcDbCircle
 10
-213.7844849842289
 20
248.9529552315381
 30
-0.0000000000005163
 40
0.4
210
0.0
220
0.0
230
-1.0
100
AcDbArc
 50
270.0
 51
0.0
  0
ARC
  5
2ED
330
1F
100
AcDbEntity
  8
OBRYS
100
AcDbCircle
 10
-218.5844849842289
 20
236.6029552315381
 30
-0.0000000000005163
 40
1.7
210
0.0
220
0.0
230
-1.0
100
AcDbArc
 50
270.0
 51
0.0
  0
ARC
  5
2EE
330
1F
100
AcDbEntity
  8
OBRYS
100
AcDbCircle
 10
-217.3844849842289
 20
241.552955231538
 30
-0.0000000000005163
 40
1.499999999999972
210
0.0
220
0.0
230
-1.0
100
AcDbArc
 50
315.6148669999999
 51
0.0
  0
ARC
  5
2EF
330
1F
100
AcDbEntity
  8
OBRYS
100
AcDbCircle
 10
216.5844849842289
 20
265.052955231538
 30
0.0000000000005163
 40
0.2
100
AcDbArc
 50
0.0
 51
90.0
  0
ARC
  5
2F0
330
1F
100
AcDbEntity
  8
OBRYS
100
AcDbCircle
 10
-201.3844849842289
 20
241.552955231538
 30
-0.0000000000005163
 40
1.499999999999972
210
0.0
220
0.0
230
-1.0
100
AcDbArc
 50
180.0
 51
224.3842609999998
  0
ARC
  5
2F1
102
{ACAD_REACTORS
102
}
330
1F
100
AcDbEntity
  8
OBRYS
100
AcDbCircle
 10
196.8344849842289
 20
234.2029552315381
 30
0.0000000000005163
 40
0.7
100
AcDbArc
 50
90.0
 51
180.0
  0
ARC
  5
2F2
330
1F
100
AcDbEntity
  8
OBRYS
100
AcDbCircle
 10
202.1844849842289
 20
263.4529552315381
 30
0.0000000000005163
 40
0.2
100
AcDbArc
 50
180.0
 51
270.0
  0
ARC
  5
2F3
330
1F
100
AcDbEntity
  8
OBRYS
100
AcDbCircle
 10
202.1844849842289
 20
265.052955231538
 30
0.0000000000005163
 40
0.2
100
AcDbArc
 50
90.0
 51
180.0
  0
ARC
  5
2F4
330
1F
100
AcDbEntity
  8
OBRYS
100
AcDbCircle
 10
216.5844849842289
 20
263.4529552315381
 30
0.0000000000005163
 40
0.2
100
AcDbArc
 50
270.0
 51
0.0
  0
ARC
  5
2F5
330
1F
100
AcDbEntity
  8
OBRYS
100
AcDbCircle
 10
-200.1844849842289
 20
236.6029552315381
 30
-0.0000000000005163
 40
1.7
210
0.0
220
0.0
230
-1.0
100
AcDbArc
 50
180.0
 51
269.999999999999
  0
ELLIPSE
  5
2F6
330
1F
100
AcDbEntity
  8
OBRYS
100
AcDbEllipse
 10
216.8844849842289
 20
236.6029552315381
 30
0.0000000000005163
 11
-2.081899558550500E-16
 21
-1.7
 31
0.0
210
0.0
220
0.0
230
1.0
 40
0.5
 41
4.71238898038469
 42
6.283185307179586
  0
ELLIPSE
  5
2F7
330
1F
100
AcDbEntity
  8
OBRYS
100
AcDbEllipse
 10
203.8844849842289
 20
239.1034542315381
 30
0.0000000000005163
 11
-2.0
 21
2.449293598294706E-16
 31
0.0
210
0.0
220
0.0
230
1.0
 40
0.999998
 41
5.507206575526
 42
6.283189385697062
  0
ELLIPSE
  5
2F8
330
1F
100
AcDbEntity
  8
OBRYS
100
AcDbEllipse
 10
211.0844849842289
 20
236.6029552315381
 30
0.0000000000005163
 11
2.081899558550500E-16
 21
1.7
 31
0.0
210
0.0
220
0.0
230
1.0
 40
0.5
 41
1.570796326794897
 42
3.141592653589793
  0
ELLIPSE
  5
2F9
330
1F
100
AcDbEntity
  8
OBRYS
100
AcDbEllipse
 10
207.6844849842289
 20
236.6029552315381
 30
0.0000000000005163
 11
-2.081899558550500E-16
 21
-1.7
 31
0.0
210
0.0
220
0.0
230
1.0
 40
0.5
 41
0.0
 42
1.570796326794897
  0
ELLIPSE
  5
2FA
330
1F
100
AcDbEntity
  8
OBRYS
100
AcDbEllipse
 10
214.8844849842289
 20
239.1034652315381
 30
0.0000000000005163
 11
-2.0
 21
2.449293598294706E-16
 31
0.0
210
0.0
220
0.0
230
1.0
 40
1.0
 41
3.141592411810501
 42
3.917537124681715
  0
ELLIPSE
  5
2FB
330
1F
100
AcDbEntity
  8
OBRYS
100
AcDbEllipse
 10
201.8844849842289
 20
236.6029552315381
 30
0.0000000000005163
 11
2.081899558550500E-16
 21
1.7
 31
0.0
210
0.0
220
0.0
230
1.0
 40
0.5
 41
3.141592653589793
 42
4.71238898038469
  0
LINE
  5
2FC
330
1F
100
AcDbEntity
  8
OBRYS
100
AcDbLine
 10
215.5966244842289
 20
271.2864852315381
 30
0.0000000000005163
 11
213.2363714492421
 21
271.7529551662155
 31
0.0000000000005208
  0
LINE
  5
2FD
330
1F
100
AcDbEntity
  8
OBRYS
100
AcDbLine
 10
209.6723459842289
 20
271.2864852315381
 30
0.0000000000005163
 11
212.0325990008532
 21
271.7529551662155
 31
0.0000000000005194
  0
LINE
  5
2FE
330
1F
100
AcDbEntity
  8
OBRYS
100
AcDbLine
 10
209.0966244842289
 20
271.2864852315381
 30
0.0000000000005163
 11
206.7363714492421
 21
271.7529551662155
 31
0.0000000000005132
  0
LINE
  5
2FF
330
1F
100
AcDbEntity
  8
OBRYS
100
AcDbLine
 10
203.1723459842289
 20
271.2864852315381
 30
0.0000000000005163
 11
205.5325990008533
 21
271.7529551662155
 31
0.0000000000005118
  0
LINE
  5
300
330
1F
100
AcDbEntity
  8
OBRYS
100
AcDbLine
 10
213.236372371261
 20
265.2529552315381
 30
0.0000000000005163
 11
215.5966244842289
 21
265.719425231538
 31
0.0000000000005163
  0
LINE
  5
301
330
1F
100
AcDbEntity
  8
OBRYS
100
AcDbLine
 10
212.0325980788344
 20
265.2529552315381
 30
0.0000000000005163
 11
209.6723459842289
 21
265.719425231538
 31
0.0000000000005163
  0
LINE
  5
302
330
1F
100
AcDbEntity
  8
OBRYS
100
AcDbLine
 10
206.736372371261
 20
265.2529552315381
 30
0.0000000000005163
 11
209.0966244842289
 21
265.719425231538
 31
0.0000000000005163
  0
LINE
  5
303
330
1F
100
AcDbEntity
  8
OBRYS
100
AcDbLine
 10
205.5325980788344
 20
265.2529552315381
 30
0.0000000000005163
 11
203.1723459842289
 21
265.719425231538
 31
0.0000000000005163
  0
LINE
  5
304
330
1F
100
AcDbEntity
  8
OBRYS
100
AcDbLine
 10
213.236371449242
 20
260.0529551662156
 30
0.0000000000005208
 11
215.5966244842289
 21
259.5864852315381
 31
0.0000000000005163
  0
LINE
  5
305
330
1F
100
AcDbEntity
  8
OBRYS
100
AcDbLine
 10
212.0325990008532
 20
260.0529551662156
 30
0.0000000000005194
 11
209.6723459842289
 21
259.5864852315381
 31
0.0000000000005163
  0
LINE
  5
306
330
1F
100
AcDbEntity
  8
OBRYS
100
AcDbLine
 10
209.0966244842289
 20
259.5864852315381
 30
0.0000000000005163
 11
206.736371449242
 21
260.0529551662156
 31
0.0000000000005132
  0
LINE
  5
307
330
1F
100
AcDbEntity
  8
OBRYS
100
AcDbLine
 10
205.5325990008532
 20
260.0529551662156
 30
0.0000000000005118
 11
203.1723459842289
 21
259.5864852315381
 31
0.0000000000005163
  0
LINE
  5
308
330
1F
100
AcDbEntity
  8
OBRYS
100
AcDbLine
 10
213.2363723712612
 20
253.552955231538
 30
0.0000000000005163
 11
215.5966244842289
 21
254.0194252315381
 31
0.0000000000005163
  0
LINE
  5
309
330
1F
100
AcDbEntity
  8
OBRYS
100
AcDbLine
 10
212.0325990008513
 20
253.5529551661874
 30
0.0000000000005194
 11
209.6723459842289
 21
254.0194252315381
 31
0.0000000000005163
  0
LINE
  5
30A
330
1F
100
AcDbEntity
  8
OBRYS
100
AcDbLine
 10
209.0966244842289
 20
254.0194252315381
 30
0.0000000000005163
 11
206.7363723712612
 21
253.552955231538
 31
0.0000000000005163
  0
LINE
  5
30B
330
1F
100
AcDbEntity
  8
OBRYS
100
AcDbLine
 10
205.5325990008514
 20
253.5529551661874
 30
0.0000000000005118
 11
203.1723459842289
 21
254.0194252315381
 31
0.0000000000005163
  0
ARC
  5
30C
330
1F
100
AcDbEntity
  8
OBRYS
100
AcDbCircle
 10
213.1217712894839
 20
232.6959179484164
 30
0.0000000000004622
 40
6.407568662259437
100
AcDbArc
 50
63.21074605403588
 51
116.7825450941967
  0
ARC
  5
30D
330
1F
100
AcDbEntity
  8
OBRYS
100
AcDbCircle
 10
205.634485037925
 20
232.6421885478456
 30
0.0000000000005831
 40
6.461275778761332
100
AcDbArc
 50
63.33150079115235
 51
116.6684978848268
  0
ARC
  5
30E
330
1F
100
AcDbEntity
  8
OBRYS
100
AcDbCircle
 10
212.2504902071604
 20
237.5967597551101
 30
0.0000000000019088
 40
3.891969973333687
100
AcDbArc
 50
137.4247395123894
 51
167.2515564305563
  0
ARC
  5
30F
330
1F
100
AcDbEntity
  8
OBRYS
100
AcDbCircle
 10
206.5184951752159
 20
237.5967693673252
 30
0.0000000000154724
 40
3.891952474155374
100
AcDbArc
 50
12.75096261163193
 51
42.57530500883303
  0
ARC
  5
310
330
1F
100
AcDbEntity
  8
OBRYS
100
AcDbCircle
 10
212.5425432908406
 20
222.3051914504028
 30
0.0
 40
18.20078654897358
100
AcDbArc
 50
80.00791247662357
 51
99.99208752337641
  0
ARC
  5
311
330
1F
100
AcDbEntity
  8
OBRYS
100
AcDbCircle
 10
206.226427159279
 20
222.274686536185
 30
0.0000000004543359
 40
18.23082952459953
100
AcDbArc
 50
80.02454721490021
 51
99.97545278522476
  0
LINE
  5
312
330
1F
100
AcDbEntity
  8
OBRYS
100
AcDbLine
 10
203.0683690934617
 20
240.2299034496042
 30
0.0000000004543359
 11
202.4570132687964
 21
240.5042813630392
 31
0.0000000000005163
  0
LINE
  5
313
330
1F
100
AcDbEntity
  8
OBRYS
100
AcDbLine
 10
215.7006013566298
 20
240.2299034496111
 30
0.0000000000005095
 11
216.3130563739429
 21
240.5031736956444
 31
0.0000000000005163
  0
LINE
  5
314
330
1F
100
AcDbEntity
  8
OBRYS
100
AcDbLine
 10
215.9917103407659
 20
239.735011650343
 30
0.0000000000005099
 11
215.7006013566298
 21
240.2299034496111
 31
0.0000000000005095
  0
LINE
  5
315
330
1F
100
AcDbEntity
  8
OBRYS
100
AcDbLine
 10
202.7772601093339
 20
239.7350116503547
 30
0.0000000000005228
 11
203.0683690934616
 21
240.2299034496042
 31
0.0000000004543359
  0
LINE
  5
316
330
1F
100
AcDbEntity
  8
OBRYS
100
AcDbLine
 10
202.7344849842289
 20
238.416102731538
 30
0.0000000000005163
 11
202.7772601093339
 21
239.7350116503547
 31
0.0000000000005228
  0
DIMENSION
  5
31C
102
{ACAD_REACTORS
102
}
102
{ACAD_XDICTIONARY
360
31D
102
}
330
1F
100
AcDbEntity
  8
KOTY
100
AcDbDimension
  2
*D2
 10
172.2054373672868
 20
275.552955231538
 30
0.0
 11
169.4039373672868
 21
223.802955231538
 31
0.0
 70
    32
  1
104,0
  3
STANDARD
100
AcDbAlignedDimension
 13
205.9844849842289
 23
172.052955231538
 33
0.0000000000005163
 14
205.9844849842289
 24
275.552955231538
 34
0.0000000000005163
 50
90.0
100
AcDbRotatedDimension
1001
ACAD
1000
DSTYLE
1002
{
1070
   271
1070
     1
1070
   278
1070
    44
1070
   147
1040
1.0
1070
    73
1070
     0
1070
    77
1070
     1
1070
   140
1040
3.0
1070
    41
1040
3.0
1002
}
  0
DIMENSION
  5
32C
102
{ACAD_REACTORS
102
}
102
{ACAD_XDICTIONARY
360
32D
102
}
330
1F
100
AcDbEntity
  8
KOTY
100
AcDbDimension
  2
*D3
 10
213.3844849842289
 20
163.6008607986231
 30
0.0
 11
209.3844849842289
 21
166.1323607986231
 31
0.0
 70
    32
  1
M8
  3
STANDARD
100
AcDbAlignedDimension
 13
205.3844849842289
 23
172.652955231538
 33
0.0000000000005163
 14
213.3844849842289
 24
172.652955231538
 34
0.0000000000005163
100
AcDbRotatedDimension
1001
ACAD
1000
DSTYLE
1002
{
1070
   271
1070
     1
1070
   278
1070
    44
1070
   147
1040
1.0
1070
    73
1070
     0
1070
    77
1070
     1
1070
   140
1040
3.0
1070
    41
1040
3.0
1002
}
  0
DIMENSION
  5
33C
102
{ACAD_REACTORS
102
}
102
{ACAD_XDICTIONARY
360
33D
102
}
330
1F
100
AcDbEntity
  8
KOTY
100
AcDbDimension
  2
*D4
 10
187.7635388507959
 20
212.7029552315381
 30
0.0
 11
184.9620388507959
 21
223.802955231538
 31
0.0
 70
    32
  3
STANDARD
100
AcDbAlignedDimension
 13
196.8344849842289
 23
234.902955231538
 33
0.0000000000005163
 14
196.8344849842289
 24
212.7029552315381
 34
0.0000000000005163
 50
90.0
100
AcDbRotatedDimension
1001
ACAD
1000
DSTYLE
1002
{
1070
   271
1070
     1
1070
   278
1070
    44
1070
   147
1040
1.0
1070
    73
1070
     0
1070
    77
1070
     1
1070
   140
1040
3.0
1070
    41
1040
3.0
1002
}
  0
DIMENSION
  5
34C
102
{ACAD_REACTORS
102
}
102
{ACAD_XDICTIONARY
360
34D
102
}
330
1F
100
AcDbEntity
  8
KOTY
100
AcDbDimension
  2
*D5
 10
187.7635388507959
 20
199.052955231538
 30
0.0
 11
184.9620388507959
 21
185.552955231538
 31
0.0
 70
    32
  3
STANDARD
100
AcDbAlignedDimension
 13
205.9844849842289
 23
172.052955231538
 33
0.0000000000005163
 14
202.8844849842289
 24
199.052955231538
 34
0.0000000000005163
 50
90.0
100
AcDbRotatedDimension
1001
ACAD
1000
DSTYLE
1002
{
1070
   271
1070
     1
1070
   278
1070
    44
1070
   147
1040
1.0
1070
    73
1070
     0
1070
    77
1070
     1
1070
   140
1040
3.0
1070
    41
1040
3.0
1002
}
  0
DIMENSION
  5
35C
102
{ACAD_REACTORS
102
}
102
{ACAD_XDICTIONARY
360
35D
102
}
330
1F
100
AcDbEntity
  8
KOTY
100
AcDbDimension
  2
*D6
 10
187.7635388507959
 20
275.552955231538
 30
0.0
 11
184.9620388507959
 21
262.052955231538
 31
0.0
 70
    32
  3
STANDARD
100
AcDbAlignedDimension
 13
202.8844849842289
 23
248.552955231538
 33
0.0000000000005163
 14
205.9844849842289
 24
275.552955231538
 34
0.0000000000005163
 50
90.0
100
AcDbRotatedDimension
1001
ACAD
1000
DSTYLE
1002
{
1070
   271
1070
     1
1070
   278
1070
    44
1070
   147
1040
1.0
1070
    73
1070
     0
1070
    77
1070
     1
1070
   140
1040
3.0
1070
    41
1040
3.0
1002
}
  0
DIMENSION
  5
36C
102
{ACAD_REACTORS
102
}
102
{ACAD_XDICTIONARY
360
36D
102
}
330
1F
100
AcDbEntity
  8
KOTY
100
AcDbDimension
  2
*D7
 10
222.6344849842289
 20
223.8076024611807
 30
0.0
 11
209.3844849842289
 21
226.6091024611807
 31
0.0
 70
    32
  1
\U+00F8 26,5
  3
STANDARD
100
AcDbAlignedDimension
 13
196.1344849842289
 23
223.802955231538
 33
0.0000000000005163
 14
222.6344849842289
 24
223.802955231538
 34
0.0000000000005163
100
AcDbRotatedDimension
1001
ACAD
1000
DSTYLE
1002
{
1070
   271
1070
     1
1070
   278
1070
    44
1070
   147
1040
1.0
1070
    73
1070
     0
1070
    77
1070
     1
1070
   140
1040
3.0
1070
    41
1040
3.0
1002
}
  0
VIEWPORT
  5
38B
330
387
100
AcDbEntity
 67
     1
  8
0
100
AcDbViewport
 10
5.25
 20
4.0
 30
0.0
 40
12.6
 41
9.6
 68
     1
 69
     1
1001
ACAD
1000
MVIEW
1002
{
1070
    16
1010
0.0
1020
0.0
1030
0.0
1010
0.0
1020
0.0
1030
1.0
1040
0.0
1040
9.6
1040
5.25
1040
4.0
1040
50.0
1040
0.0
1040
0.0
1070
     0
1070
   100
1070
     0
1070
     3
1070
     0
1070
     0
1070
     0
1070
     0
1040
0.0
1040
0.0
1040
0.0
1040
0.5
1040
0.5
1040
0.0
1040
0.0
1070
     0
1002
{
1002
}
1002
}
  0
VIEWPORT
  5
38C
330
387
100
AcDbEntity
 67
     1
  8
0
100
AcDbViewport
 10
5.25
 20
4.0
 30
0.0
 40
8.4
 41
6.4
 68
     2
 69
     2
1001
ACAD
1000
MVIEW
1002
{
1070
    16
1010
0.0
1020
0.0
1030
0.0
1010
0.0
1020
0.0
1030
1.0
1040
0.0
1040
114.7011363215732
1040
195.1154611757579
1040
219.3269080150806
1040
50.0
1040
0.0
1040
0.0
1070
     0
1070
   100
1070
     0
1070
     3
1070
     0
1070
     0
1070
     0
1070
     0
1040
0.0
1040
0.0
1040
0.0
1040
0.5
1040
0.5
1040
0.0
1040
0.0
1070
     0
1002
{
1002
}
1002
}
  0
ENDSEC
  0
SECTION
  2
OBJECTS
  0
DICTIONARY
  5
C
330
0
100
AcDbDictionary
  3
ACAD_DETAILVIEWSTYLE
350
122
  3
ACAD_GROUP
350
D
  3
ACAD_IMAGE_VARS
350
DC
  3
ACAD_MLINESTYLE
350
17
  3
ACAD_SCALELIST
350
B6
  3
ACAD_SECTIONVIEWSTYLE
350
123
  3
ACDBVARIABLEDICTIONARY
350
66
  3
APPDATA
350
E1
  3
DWGPROPS
350
394
  0
DICTIONARY
  5
317
330
2
100
AcDbDictionary
280
     1
  3
ACAD_LAYERSTATES
360
318
  3
ACLYDICTIONARY
360
393
  0
DICTIONARY
  5
31D
330
31C
100
AcDbDictionary
280
     1
  0
DICTIONARY
  5
32D
330
32C
100
AcDbDictionary
280
     1
  0
DICTIONARY
  5
33D
330
33C
100
AcDbDictionary
280
     1
  0
DICTIONARY
  5
34D
330
34C
100
AcDbDictionary
280
     1
  0
DICTIONARY
  5
35D
330
35C
100
AcDbDictionary
280
     1
  0
DICTIONARY
  5
36D
330
36C
100
AcDbDictionary
280
     1
  0
DICTIONARY
  5
122
102
{ACAD_REACTORS
330
C
102
}
330
C
100
AcDbDictionary
  0
DICTIONARY
  5
D
102
{ACAD_REACTORS
330
C
102
}
330
C
100
AcDbDictionary
  0
RASTERVARIABLES
  5
DC
102
{ACAD_REACTORS
330
C
102
}
330
C
100
AcDbRasterVariables
 90
        0
 70
     1
 71
     1
 72
     5
  0
DICTIONARY
  5
17
102
{ACAD_REACTORS
330
C
102
}
330
C
100
AcDbDictionary
  3
STANDARD
350
18
  0
DICTIONARY
  5
B6
102
{ACAD_REACTORS
330
C
102
}
330
C
100
AcDbDictionary
  0
DICTIONARY
  5
123
102
{ACAD_REACTORS
330
C
102
}
330
C
100
AcDbDictionary
  0
DICTIONARY
  5
66
102
{ACAD_REACTORS
330
C
102
}
330
C
100
AcDbDictionary
  3
DIMASSOC
350
67
  3
HIDETEXT
350
6B
  0
DICTIONARY
  5
E1
102
{ACAD_REACTORS
330
C
102
}
330
C
100
AcDbDictionary
  0
XRECORD
  5
394
102
{ACAD_REACTORS
330
C
102
}
330
C
100
AcDbXrecord
  1
DWGPROPS COOKIE
  2

  3

  4

  6

  7

  8
jaromir.podrabsky
  9

300
=
301
=
302
=
303
=
304
=
305
=
306
=
307
=
308
=
309
=
 40
0.0
 41
2452643.063384271
 42
2457042.503279109
  1

 90
        0
  0
DICTIONARY
  5
318
102
{ACAD_REACTORS
330
317
102
}
330
317
100
AcDbDictionary
  0
DICTIONARY
  5
393
102
{ACAD_REACTORS
330
317
102
}
330
317
100
AcDbDictionary
1001
ACAD
1000
<All
  0
MLINESTYLE
  5
18
102
{ACAD_REACTORS
330
17
102
}
330
17
100
AcDbMlineStyle
  2
STANDARD
 70
     0
  3

 62
   256
 51
90.0
 52
90.0
 71
     2
 49
0.5
 62
   256
  6
BYLAYER
 49
-0.5
 62
   256
  6
BYLAYER
  0
DICTIONARYVAR
  5
67
102
{ACAD_REACTORS
330
66
102
}
330
66
100
DictionaryVariables
280
     0
  1
2
  0
DICTIONARYVAR
  5
6B
102
{ACAD_REACTORS
330
66
102
}
330
66
100
DictionaryVariables
280
     0
  1
1
  0
ENDSEC
  0
EOF
